Loading...
Error

День "Военной тайны." НЛО атакует, часть-21 [2013 г., документальный, TVRip]

Статистика раздачи
Размер:  437 MB   |    Зарегистрирован:  3 года 5 месяцев   |    Скачан:  3 раза
Сидов:  1  |  0 KB/s  ]   Личеров:  0  |  0 KB/s  ]

* - сиды/пиры с внешних источников

   
 
Автор Сообщение

матроскин Пол:Муж

14-Июн-2013 06:55

День "Военной тайны." НЛО атакует, часть-21


Год выпуска: 2013
Жанр: документальный
Страна: Россия
Выпущено: Телеканал РЕН-ТВ
Ведущий: Игорь Прокопенко
Сюжет фильма:
Декабрь 1944-го года. Третий флот ВМС США направляется к берегам Филиппин, для того, что бы нанести удар по японской авиации, которая уже несколько недель базируется на этих островах. И тут... американский флот подвергся нападению огромной, 20-ти метровой волны! Это была одна из самых загадочных и масштабных катастроф ВМС США. Но что это было? Новейшие разработки японского оружия или здесь не обошлось без внеземного вмешательства? Более того, накануне катастрофы не было ни какого штормового предупреждения!
Качество видео: TVRip

Продолжительность: 00:37:46
Формат: avi
Видео: DivX 5, 704x528, 1480 kbps
Аудио: русский, оригинал, MP3 2.0, 128 kbps

Код:

General
Complete name                    : C:\Users\Security\Desktop\НЛО атакует ч 21.avi
Format                           : AVI
Format/Info                      : Audio Video Interleave
File size                        : 437 MiB
Duration                         : 37mn 46s
Overall bit rate                 : 1 618 Kbps
Writing application              : VirtualDubMod 1.6.0.0 SURROUND (build 2560/release)
Writing library                  : VirtualDubMod build 2560/release

Video
ID                               : 0
Format                           : MPEG-4 Visual
Format settings, BVOP            : Yes
Format settings, QPel            : No
Format settings, GMC             : No warppoints
Format settings, Matrix          : Default (H.263)
Muxing mode                      : Packed bitstream
Codec ID                         : DX50
Codec ID/Hint                    : DivX 5
Duration                         : 37mn 46s
Bit rate                         : 1 480 Kbps
Width                            : 704 pixels
Height                           : 528 pixels
Display aspect ratio             : 4/3
Frame rate                       : 25.000 fps
Resolution                       : 24 bits
Colorimetry                      : 4:2:0
Scan type                        : Progressive
Bits/(Pixel*Frame)               : 0.159
Stream size                      : 400 MiB (91%)
Writing library                  : DivX 6.8.5

Audio
ID                               : 1
Format                           : MPEG Audio
Format version                   : Version 1
Format profile                   : Layer 3
Codec ID                         : 55
Codec ID/Hint                    : MP3
Duration                         : 37mn 46s
Bit rate mode                    : Constant
Bit rate                         : 128 Kbps
Channel(s)                       : 2 channels
Sampling rate                    : 48.0 KHz
Resolution                       : 16 bits
Stream size                      : 34.6 MiB (8%)
Alignment                        : Split accross interleaves
Interleave, duration             : 40 ms (1.00 video frame)
Interleave, preload duration     : 500 ms
Writing library                  : LAME3.99r
Encoding settings                : -m j -V 4 -q 3 -lowpass 17 -b 128

picpicpicpicpicpic
Для увеличения картинки щелкните мышкой по превью

Этот торрент недоступен для скачивания без регистрации, однако доступен по публичной magnet-ссылке (источники с публичных трекеров). Перед использованием ссылки прочтите, пожалуйста Пользовательское соглашение, а также как можно дольше оставайтесь на раздаче! Для того, чтобы скачать сам торрент-файл (который видит больше источников), а также для того, чтобы поблагодарить релизера, вам необходимо зарегистрироваться. Если регистрироваться лень - вы можете также попробовать скачать релиз по нашим партнерским ссылкам ниже.

[underverse.su].t28407.torrent
Трекер: Зарегистрирован   [ 14.06.2013 06:55 ]  

Статус: проверено (by матроскин at 14.06.2013 06:57)
Поблагодарили: 1 человек
Тип торрента: публичный - доступные источники с открытых трекеров: 
Размер: 437 MB (занимает 0,1 DVDR, для записи нужно 1 болванка DVDR/RW)
 
 
Похожие темы
Форум Тема Автор Торрент Отв. Посл. сооб.
Научно-популярные фильмы День "Военной тайны." Оружие-2, часть-18 [2013 г., документальный, TVRip] матроскин
2 | 0

1 | 790

6

14.06.2013 06:34

Научно-популярные фильмы День "Военной тайны". Герой, часть- 1 [2013 г., документальный, TVRip] матроскин
1 | 0

1 | 739

5

11.06.2013 19:33

Научно-популярные фильмы День "Военной тайны." Победившие бездну, часть-2 [2013 г., документальный, TVRip] матроскин
1 | 0

1 | 657

5

11.06.2013 19:40

Научно-популярные фильмы День "Военной тайны." Город мужества - Воронеж, часть-3 [2013 г., документальный, TVRip] матроскин
1 | 0

1 | 795

8

11.06.2013 19:49

Научно-популярные фильмы День "Военной тайны." Оружие, часть-4 [2013 г., документальный, TVRip] матроскин
1 | 0

1 | 730

4

11.06.2013 19:56

Научно-популярные фильмы День "Военной тайны." Демоны моря, часть-5 [2013 г., документальный, TVRip] матроскин
1 | 0

1 | 702

7

11.06.2013 20:03

Научно-популярные фильмы День "Военной тайны." Герой славянских богов, часть-6 [2013 г., документальный, TVRip] матроскин
1 | 0

1 | 795

9

11.06.2013 20:10

Научно-популярные фильмы День "Военной тайны." Герой-враг Гитлера, часть - 7 [2013 г., документальный, TVRip] матроскин
1 | 0

1 | 675

4

11.06.2013 21:03

Научно-популярные фильмы День "Военной тайны." Воины во Вселенной, часть-8 [2013 г., документальный, TVRip] матроскин
1 | 0

1 | 708

8

12.06.2013 06:20

Научно-популярные фильмы День "Военной тайны." Военно-полевой репортаж-1, часть - 9 [2013 г., документальный, TVRip] матроскин
1 | 0

1 | 744

5

11.06.2013 21:38

матроскин Пол:Муж

14-Июн-2013 06:57


Яндекс.Метрика powered by Sphinx


В Н И М А Н И Е
Сайт не распространяет и не хранит электронные версии произведений, а лишь бесплатно и без коммерческой выгоды (не требуя взамен платы,
SMS и т.д.) предоставляет доступ к создаваемому пользователями каталогу ссылок на торрент-файлы, которые содержат только списки хеш-сумм.
Убедительная просьба с жалобами обращаться напрямую к пользователю, разместившему торрент файл.

Вверх