Loading...
Error

День "Военной тайны." Герой славянских богов, часть-6 [2013 г., документальный, TVRip]

Статистика раздачи
Размер:  498 MB   |    Зарегистрирован:  3 года 5 месяцев   |    Скачан:  9 раз
Сидов:  1  |  0 KB/s  ]   Личеров:  0  |  0 KB/s  ]

* - сиды/пиры с внешних источников

   
 
Автор Сообщение

матроскин Пол:Муж

11-Июн-2013 20:09

День "Военной тайны." Герой славянских богов, часть-6


Год выпуска: 2013
Жанр: документальный
Страна: Россия
Выпущено: Телеканал РЕН-ТВ
Ведущий: Игорь Прокопенко
Сюжет фильма:
В этом выпуске: Такого количества героев и невероятных подвигов не в истории ни одного государства. Неувядаемой славой покрыли себя воины Древней Руси. Почти мистический страх вызывал простой русский солдат у всех захватчиков, которые когда-либо приходили на нашу землю! Но откуда в народе такие мощные традиции героизма и самопожертвования? Любопытный ответ дают на этот вопрос историки, изучающие древние летописи. Мало кто знает, но согласно еще дохристианским источникам предки славян считали себя прямыми потомками Богов! И внуками самого Дажьбога! Что скрывается за этими легендами? Кем на самом деле были Боги, бравшие в жены русских красавиц? На чем основано утверждение древнегреческих летописцев о том, что дети славянских Богов обладали сверхъестественными способностями? И кого летописцы называли Богатырями Земли Русской?
Качество видео: TVRip

Продолжительность: 00:43:02
Формат: avi
Видео: DivX 5, 704x528, 1479 kbps
Аудио: русский, оригинал, MP3 2.0, 128 kbps

Код:

General
Complete name                    : C:\Users\Security\Desktop\Герой славянских богов ч 6.avi
Format                           : AVI
Format/Info                      : Audio Video Interleave
File size                        : 498 MiB
Duration                         : 43mn 2s
Overall bit rate                 : 1 617 Kbps
Writing application              : VirtualDubMod 1.6.0.0 SURROUND (build 2560/release)
Writing library                  : VirtualDubMod build 2560/release

Video
ID                               : 0
Format                           : MPEG-4 Visual
Format settings, BVOP            : Yes
Format settings, QPel            : No
Format settings, GMC             : No warppoints
Format settings, Matrix          : Default (H.263)
Muxing mode                      : Packed bitstream
Codec ID                         : DX50
Codec ID/Hint                    : DivX 5
Duration                         : 43mn 2s
Bit rate                         : 1 480 Kbps
Width                            : 704 pixels
Height                           : 528 pixels
Display aspect ratio             : 4/3
Frame rate                       : 25.000 fps
Resolution                       : 24 bits
Colorimetry                      : 4:2:0
Scan type                        : Progressive
Bits/(Pixel*Frame)               : 0.159
Stream size                      : 455 MiB (91%)
Writing library                  : DivX 6.8.5

Audio
ID                               : 1
Format                           : MPEG Audio
Format version                   : Version 1
Format profile                   : Layer 3
Codec ID                         : 55
Codec ID/Hint                    : MP3
Duration                         : 43mn 2s
Bit rate mode                    : Constant
Bit rate                         : 128 Kbps
Channel(s)                       : 2 channels
Sampling rate                    : 48.0 KHz
Resolution                       : 16 bits
Stream size                      : 39.4 MiB (8%)
Alignment                        : Split accross interleaves
Interleave, duration             : 40 ms (1.00 video frame)
Interleave, preload duration     : 500 ms
Writing library                  : LAME3.99r
Encoding settings                : -m j -V 4 -q 3 -lowpass 17 -b 128

picpicpicpicpicpic
Для увеличения картинки щелкните мышкой по превью

Этот торрент недоступен для скачивания без регистрации, однако доступен по публичной magnet-ссылке (источники с публичных трекеров). Перед использованием ссылки прочтите, пожалуйста Пользовательское соглашение, а также как можно дольше оставайтесь на раздаче! Для того, чтобы скачать сам торрент-файл (который видит больше источников), а также для того, чтобы поблагодарить релизера, вам необходимо зарегистрироваться. Если регистрироваться лень - вы можете также попробовать скачать релиз по нашим партнерским ссылкам ниже.

[underverse.su].t28352.torrent
Трекер: Зарегистрирован   [ 11.06.2013 20:09 ]  

Статус: проверено (by матроскин at 11.06.2013 20:10)
Поблагодарили: 1 человек
Тип торрента: публичный - доступные источники с открытых трекеров: 
Размер: 498 MB (занимает 0,11 DVDR, для записи нужно 1 болванка DVDR/RW)
 
 
Похожие темы
Форум Тема Автор Торрент Отв. Посл. сооб.
Научно-популярные фильмы День "Военной тайны." Оружие-2, часть-18 [2013 г., документальный, TVRip] матроскин
2 | 0

1 | 792

6

14.06.2013 06:34

Научно-популярные фильмы День "Военной тайны". Герой, часть- 1 [2013 г., документальный, TVRip] матроскин
1 | 0

1 | 742

5

11.06.2013 19:33

Научно-популярные фильмы День "Военной тайны." Победившие бездну, часть-2 [2013 г., документальный, TVRip] матроскин
1 | 0

1 | 658

5

11.06.2013 19:40

Научно-популярные фильмы День "Военной тайны." Город мужества - Воронеж, часть-3 [2013 г., документальный, TVRip] матроскин
1 | 0

1 | 799

8

11.06.2013 19:49

Научно-популярные фильмы День "Военной тайны." Оружие, часть-4 [2013 г., документальный, TVRip] матроскин
1 | 0

1 | 732

4

11.06.2013 19:56

Научно-популярные фильмы День "Военной тайны." Демоны моря, часть-5 [2013 г., документальный, TVRip] матроскин
1 | 0

1 | 703

7

11.06.2013 20:03

Научно-популярные фильмы День "Военной тайны." Герой-враг Гитлера, часть - 7 [2013 г., документальный, TVRip] матроскин
1 | 0

1 | 677

4

11.06.2013 21:03

Научно-популярные фильмы День "Военной тайны." Воины во Вселенной, часть-8 [2013 г., документальный, TVRip] матроскин
1 | 0

1 | 710

8

12.06.2013 06:20

Научно-популярные фильмы День "Военной тайны." Военно-полевой репортаж-1, часть - 9 [2013 г., документальный, TVRip] матроскин
1 | 0

1 | 748

5

11.06.2013 21:38

Научно-популярные фильмы День "Военной тайны." Пришельцы Второй Мировой, часть-10 [2013 г., документальный, TVRip] матроскин
1 | 0

1 | 728

8

11.06.2013 21:26

матроскин Пол:Муж

11-Июн-2013 20:10


Яндекс.Метрика powered by Sphinx


В Н И М А Н И Е
Сайт не распространяет и не хранит электронные версии произведений, а лишь бесплатно и без коммерческой выгоды (не требуя взамен платы,
SMS и т.д.) предоставляет доступ к создаваемому пользователями каталогу ссылок на торрент-файлы, которые содержат только списки хеш-сумм.
Убедительная просьба с жалобами обращаться напрямую к пользователю, разместившему торрент файл.

Вверх