Loading...
Error

Острый перец / Mirchi (Кораталла Сива / Koratalla Siva) [2013 г., мелодрама, DVDRip] VO

Статистика раздачи
Размер:  1,38 GB   |    Зарегистрирован:  3 года 5 месяцев   |    Скачан:  3 раза

Полного источника не было: 3 года 4 месяца

Сидов:  0  |  0 KB/s  ]   Личеров:  0  |  0 KB/s  ]

* - сиды/пиры с внешних источников

   
 
Автор Сообщение

RG NewCinema 

11-Июн-2013 06:20

Острый перец / Mirchi


Страна: Индия
Жанр: Мелодрама
Год выпуска: 2013
Продолжительность: 02:40:28

Перевод: Любительский (одноголосый закадровый) Zamez
Cубтитры: русские (только на песни)
Режиссер: Кораталла Сива / Koratalla Siva

В ролях: Прабхас, Анушка Шетти, Сатьярадж, Рича Гангопадхай, Надия, Адитья, Брахманандам, Нагинеду

Описание: Самое лучшее в жизни - это когда человек может любить тебя в ответ. Глубокий смысл этой фразы герой фильма Джей (Прабхас) осознал, пройдя через потерю близких ему людей. Он произнес эту фразу Манасе (Рича Гонгопадхай), которую встретил в Милане, чтобы отвлечь ее от печальных мыслей, скрытых в ее красивых глазах. Следуя велению своего сердца, он приехал за Манасой на ее родину в Палнаду, где две деревни десятки лет ведут непримиримую и кровопролитную вражду друг с другом. Цель Джея - разрушить ад, окружающий девушку, подарить покой ее семье, навсегда изгнать царящий в округе страх. Но для этого ему предстоит встретиться и с заклятым врагом семьи Манасы... (c) Wita

Перевод: Wita
Спасибо большое за спонсирование озвучки amira-02

Сэмпл: http://multi-up.com/874258

Качество видео: DVDRip
Формат видео: AVI

Видео: XviD build 50, 672x288 (2.33:1), 23.976 fps, 1027 kbps avg
Аудио: AC3 Dolby Digital, 48 kHz, 2/0 (L,R) ch, 192.00 kbps avg
General
Complete name : D:Ostryi.Perec.2013.DVDRip.XviD.tw.BwTorrentsOstryi.Perec.2013.DVDRip.XviD.tw.BwTorrents.avi
Format : AVI
Format/Info : Audio Video Interleave
File size : 1.38 GiB
Duration : 2h 40mn
Overall bit rate : 1 229 Kbps
Writing application : VirtualDubMod 1.5.10.2 (build 2540/release)
Writing library : VirtualDubMod build 2540/release

Video
ID : 0
Format : MPEG-4 Visual
Format profile : AdvancedSimple@L5
Format settings, BVOP : Yes
Format settings, QPel : No
Format settings, GMC : No warppoints
Format settings, Matrix : Custom
Codec ID : XVID
Codec ID/Hint : XviD
Duration : 2h 40mn
Bit rate : 1 028 Kbps
Width : 672 pixels
Height : 288 pixels
Display aspect ratio : 2.35
Frame rate : 23.976 fps
Resolution : 24 bits
Colorimetry : 4:2:0
Scan type : Progressive
Bits/(Pixel*Frame) : 0.221
Stream size : 1.15 GiB (84%)
Writing library : XviD 1.2.1 (UTC 2008-12-04)

Audio
ID : 1
Format : AC-3
Format/Info : Audio Coding 3
Codec ID : 2000
Duration : 2h 40mn
Bit rate mode : Constant
Bit rate : 192 Kbps
Channel(s) : 2 channels
Channel positions : L R
Sampling rate : 48.0 KHz
Stream size : 220 MiB (16%)
Alignment : Split accross interleaves
Interleave, duration : 42 ms (1.00 video frame)
Interleave, preload duration : 500 ms
pic pic pic
Для увеличения картинки щелкните мышкой по превью

Этот торрент недоступен для скачивания без регистрации, однако доступен по публичной magnet-ссылке (источники с публичных трекеров). Перед использованием ссылки прочтите, пожалуйста Пользовательское соглашение, а также как можно дольше оставайтесь на раздаче! Для того, чтобы скачать сам торрент-файл (который видит больше источников), а также для того, чтобы поблагодарить релизера, вам необходимо зарегистрироваться. Если регистрироваться лень - вы можете также попробовать скачать релиз по нашим партнерским ссылкам ниже.

[underverse.su].t28329.torrent
Трекер: Зарегистрирован   [ 11.06.2013 06:20 ]  

Статус: проверено (by Чертёнок at 11.06.2013 08:41)
Поблагодарили: пока никто не поблагодарил...
Тип торрента: публичный - доступные источники с открытых трекеров: 
Размер: 1,38 GB (занимает 0,31 DVDR, для записи нужно 1 болванка DVDR/RW)
 
 

Яндекс.Метрика powered by Sphinx


В Н И М А Н И Е
Сайт не распространяет и не хранит электронные версии произведений, а лишь бесплатно и без коммерческой выгоды (не требуя взамен платы,
SMS и т.д.) предоставляет доступ к создаваемому пользователями каталогу ссылок на торрент-файлы, которые содержат только списки хеш-сумм.
Убедительная просьба с жалобами обращаться напрямую к пользователю, разместившему торрент файл.

Вверх