Loading...
Error

«Береговая охрана» / Серии: 1-16 [16] (Павел Симонов, Алексей Козлов) [2013 г.,криминал, приключения, SatRip]

Статистика раздачи
Размер:  8,46 GB   |    Зарегистрирован:  3 года 5 месяцев   |    Скачан:  20 раз

Полного источника не было: 2 месяца 2 дня

Сидов:  0  |  0 KB/s  ]   Личеров:  0  |  0 KB/s  ]

* - сиды/пиры с внешних источников

   
 
Автор Сообщение

nemos Пол:Муж

11-Июн-2013 02:44

Береговая охрана


Год выпуска: 2013
Жанр: криминал, приключения
Страна: Россия
Режиссер: Павел Симонов, Алексей Козлов
В ролях: Елена Дудина, Илья Алексеев, Арина Лыкова, Дмитрий Кочкин, Александр Глебов, Юлия Сафонова, Рина Гришина, Николай Васильев, Дмитрий СоловьевДмитрий Олейник,
Сюжет фильма:
Сериал рассказывает о жизни пограничного российского городка и непростой службе офицеров Береговой охраны ФСБ РФ. Андрей Васильков по распределению прибывает в Ушаков. Позади — пять лет в военно-морском институте, впереди — служба в береговой охране. Но вместо ожидаемых Васильковым романтики, приключений, опасностей и пороха, он получил каждодневную рутину. А еще — излишнюю самоуверенность, разгильдяйство, предательства, разочарования, настоящую мужскую дружбу, любовь к женщине, подвиги, героизм, взросление… И, как выяснилось, любовь к Родине. Потому что «есть такая профессия — Родину защищать».


Качество видео: SatRip

Продолжительность: 00:43:38 серия
Формат: AVI
Видео: XviD, 720x448, 1503 kbps
Аудио: русский, MP3 2.0, 128 kbps

Код:

F:\С underverse-3 Фильмы\Береговая охрана\Beregovaya.ohrana.01.avi
   General
      Complete name : F:\С underverse-3 Фильмы\Береговая охрана\Beregovaya.ohrana.01.avi
      Format : AVI
      Format/Info : Audio Video Interleave
      File size : 543 MiB
      Duration : 43mn 38s
      Overall bit rate : 1 740 Kbps
   Video #0
      ID : 0
      Format : MPEG-4 Visual
      Format profile : Advanced Simple@L5
      Format settings, BVOP : 2
      Format settings, QPel : No
      Format settings, GMC : No warppoints
      Format settings, Matrix : Default (MPEG)
      Codec ID : XVID
      Codec ID/Hint : XviD
      Duration : 43mn 38s
      Bit rate : 1 503 Kbps
      Width : 720 pixels
      Height : 448 pixels
      Display aspect ratio : 1.607
      Frame rate : 25.000 fps
      Color space : YUV
      Chroma subsampling : 4:2:0
      Bit depth : 8 bits
      Scan type : Progressive
      Compression mode : Lossy
      Bits/(Pixel*Frame) : 0.186
      Stream size : 469 MiB (86%)
      Writing library : XviD 1.2.1 (UTC 2008-12-04)
   Audio #1
      ID : 1
      Format : MPEG Audio
      Format version : Version 1
      Format profile : Layer 3
      Mode : Joint stereo
      Mode extension : MS Stereo
      Codec ID : 55
      Codec ID/Hint : MP3
      Duration : 43mn 38s
      Bit rate mode : Constant
      Bit rate : 128 Kbps
      Channel(s) : 2 channels
      Sampling rate : 48.0 KHz
      Compression mode : Lossy
      Delay relative to video : 16ms
      Stream size : 40.0 MiB (7%)
      Alignment : Split accross interleaves
      Interleave, duration : 24 ms (0.60 video frame)
      Interleave, preload duration : 16 ms
Семпл: http://multi-up.com/874314

Релиз группы:

picpicpicpicpicpicpicpicpicpicpicpicpicpicpicpicpicpic
Для увеличения картинки щелкните мышкой по превью
Сериал который был выложен и зарегистрирован более двух месяцев назад буду раздавать с 23.00ч до 06.00ч утра ( вина в этом немоя, а пользователей которые неподдерживают раздачу)

Этот торрент недоступен для скачивания без регистрации, однако доступен по публичной magnet-ссылке (источники с публичных трекеров). Перед использованием ссылки прочтите, пожалуйста Пользовательское соглашение, а также как можно дольше оставайтесь на раздаче! Для того, чтобы скачать сам торрент-файл (который видит больше источников), а также для того, чтобы поблагодарить релизера, вам необходимо зарегистрироваться. Если регистрироваться лень - вы можете также попробовать скачать релиз по нашим партнерским ссылкам ниже.

[underverse.su].t28428.torrent
Трекер: Зарегистрирован   [ 14.06.2013 13:08 ]  

Статус: проверено (by Чертёнок at 14.06.2013 16:47)
Поблагодарили: 4 человека
Тип торрента: публичный - доступные источники с открытых трекеров: 
Размер: 8,46 GB (занимает 1,93 DVDR, для записи нужно 2 болванки DVDR/RW)
 
 


Последний раз редактировалось: nemos (06.11.2014 10:04), всего редактировалось 8 раз(а)

nemos Пол:Муж

11-Июн-2013 14:48

Торрент обновлен !

Яндекс.Метрика powered by Sphinx


В Н И М А Н И Е
Сайт не распространяет и не хранит электронные версии произведений, а лишь бесплатно и без коммерческой выгоды (не требуя взамен платы,
SMS и т.д.) предоставляет доступ к создаваемому пользователями каталогу ссылок на торрент-файлы, которые содержат только списки хеш-сумм.
Убедительная просьба с жалобами обращаться напрямую к пользователю, разместившему торрент файл.

Вверх