Loading...
Error

Шутки ангела (Евгений Аксенов) [2013 г., боевик, комедия, SatRip]

Статистика раздачи
Размер:  1,34 GB   |    Зарегистрирован:  3 года 5 месяцев   |    Скачан:  34 раза

Полного источника не было: 10 месяцев

Сидов:  0  |  0 KB/s  ]   Личеров:  0  |  0 KB/s  ]

* - сиды/пиры с внешних источников

   
 
Автор Сообщение

nemos Пол:Муж

10-Июн-2013 11:24

Шутки ангела


Год выпуска: 2013
Жанр: Боевик, комедия
Страна: Россия
Режиссер: Евгений Аксенов
В ролях: Артур Ваха, Мария Бортник, Ростислав Бершауэр, Елена Купрашевич, Владимир Фоков, Алексей Федотов, Ольга Кирсанова, Геннадий СмирновСергей Бызгу,
Сюжет фильма:
Жил-был тиран и самодур бизнесмен Мухин. Так бы дальше и жил, мучая домочадцев и подчиненных, если бы… Если бы не началась за ним охота тайного убийцы, не было у него верного друга Пчелкина, надежного охранника Михалыча и маленькой дочки, которая подружилась с ангелом.

  • Российская премьера: 8 июня 2013

Качество видео: SatRip

Продолжительность: 01:27:17
Формат: AVI
Видео: DivX, 704x400, 2069 kbps
Аудио: русский, MP3 2.0, 128 kbps

Код:

F:\С underverse-3 Фильмы\Шутки ангела.avi
   General
      Complete name : F:\С underverse-3 Фильмы\Шутки ангела.avi
      Format : AVI
      Format/Info : Audio Video Interleave
      File size : 1.34 GiB
      Duration : 1h 26mn
      Overall bit rate : 2 210 Kbps
      Writing application : transcode-1.1.5
   Video #0
      ID : 0
      Format : MPEG-4 Visual
      Format settings, BVOP : Yes
      Format settings, QPel : No
      Format settings, GMC : No warppoints
      Format settings, Matrix : Default (H.263)
      Codec ID : DX50
      Codec ID/Hint : DivX 5
      Duration : 1h 26mn
      Bit rate : 2 069 Kbps
      Width : 704 pixels
      Height : 400 pixels
      Display aspect ratio : 16:9
      Frame rate : 25.000 fps
      Color space : YUV
      Chroma subsampling : 4:2:0
      Bit depth : 8 bits
      Scan type : Progressive
      Compression mode : Lossy
      Bits/(Pixel*Frame) : 0.294
      Stream size : 1.26 GiB (94%)
      Writing library : Intel(R) MPEG-4 encoder based on Intel(R) IPP 6.1 build 137.20[6.1.137.763]
   Audio #1
      ID : 1
      Format : MPEG Audio
      Format version : Version 1
      Format profile : Layer 3
      Mode : Joint stereo
      Codec ID : 55
      Codec ID/Hint : MP3
      Duration : 1h 26mn
      Bit rate mode : Constant
      Bit rate : 128 Kbps
      Channel(s) : 2 channels
      Sampling rate : 48.0 KHz
      Compression mode : Lossy
      Stream size : 79.5 MiB (6%)
      Alignment : Aligned on interleaves
      Interleave, duration : 24 ms (0.60 video frame)
      Interleave, preload duration : 48 ms
      Writing library : LAME3.98.2
Семпл: http://multi-up.com/874127

Релиз группы:

picpicpicpicpicpicpicpicpicpicpicpic
Для увеличения картинки щелкните мышкой по превью
Сериал который был выложен и зарегистрирован более двух месяцев назад буду раздавать с 23.00ч до 06.00ч утра ( вина в этом немоя, а пользователей которые неподдерживают раздачу)

Этот торрент недоступен для скачивания без регистрации, однако доступен по публичной magnet-ссылке (источники с публичных трекеров). Перед использованием ссылки прочтите, пожалуйста Пользовательское соглашение, а также как можно дольше оставайтесь на раздаче! Для того, чтобы скачать сам торрент-файл (который видит больше источников), а также для того, чтобы поблагодарить релизера, вам необходимо зарегистрироваться. Если регистрироваться лень - вы можете также попробовать скачать релиз по нашим партнерским ссылкам ниже.

[underverse.su].t28321.torrent
Трекер: Зарегистрирован   [ 10.06.2013 11:24 ]  

Статус: проверено (by Печаль'ka at 10.06.2013 14:06)
Поблагодарили: 2 человека
Тип торрента: публичный - доступные источники с открытых трекеров: 
Размер: 1,34 GB (занимает 0,31 DVDR, для записи нужно 1 болванка DVDR/RW)
 
 

Яндекс.Метрика powered by Sphinx


В Н И М А Н И Е
Сайт не распространяет и не хранит электронные версии произведений, а лишь бесплатно и без коммерческой выгоды (не требуя взамен платы,
SMS и т.д.) предоставляет доступ к создаваемому пользователями каталогу ссылок на торрент-файлы, которые содержат только списки хеш-сумм.
Убедительная просьба с жалобами обращаться напрямую к пользователю, разместившему торрент файл.

Вверх