Loading...
Error

Мой папа летчик (Александр Итыгилов мл.) [2013 г., мелодрама, SatRip]

Статистика раздачи
Размер:  1,36 GB   |    Зарегистрирован:  3 года 5 месяцев   |    Скачан:  16 раз

Полного источника не было: 18 дней

Сидов:  0  |  0 KB/s  ]   Личеров:  0  |  0 KB/s  ]

* - сиды/пиры с внешних источников

   
 
Автор Сообщение

nemos Пол:Муж

10-Июн-2013 10:39

Мой папа летчик


Год выпуска: 2013
Жанр: мелодрама
Страна: Россия , Украина
Режиссер: Александр Итыгилов мл.
В ролях: Иван Шмаков, Леся Самаева, Елизавета Майская, Марина КоняшкинаОлег Харитонов,
Сюжет фильма:
Люся Ермакова работает официанткой в офицерской столовой летного гарнизона. Ее сын Валька мечтает, чтобы у него был папа, и обязательно летчик. Подполковник Ивченко требует от Люси благосклонности, ведь это он помог ей с работой, но женщина избегает его. Ей нравится майор Ловцов. Однажды Валька убегает на аэродром и пропадает. На поиски ребенка поднимают весь гарнизон…

  • Российская премьера: 9 июня 2013

Качество видео: SatRip

Продолжительность: 01:28:00
Формат: AVI
Видео: DivX, 704x400, 2051 kbps
Аудио: русский, MP3 2.0, 128 kbps

Код:

F:\С underverse-3 Фильмы\Moj.papa.letchik..avi
   General
      Complete name : F:\С underverse-3 Фильмы\Moj.papa.letchik..avi
      Format : AVI
      Format/Info : Audio Video Interleave
      Format profile : OpenDML
      File size : 1.36 GiB
      Duration : 1h 28mn
      Overall bit rate : 2 196 Kbps
   Video #0
      ID : 0
      Format : MPEG-4 Visual
      Format settings, BVOP : Yes
      Format settings, QPel : No
      Format settings, GMC : No warppoints
      Format settings, Matrix : Default (H.263)
      Codec ID : DX50
      Codec ID/Hint : DivX 5
      Duration : 1h 28mn
      Bit rate : 2 051 Kbps
      Width : 704 pixels
      Height : 400 pixels
      Display aspect ratio : 16:9
      Frame rate : 25.000 fps
      Color space : YUV
      Chroma subsampling : 4:2:0
      Bit depth : 8 bits
      Scan type : Progressive
      Compression mode : Lossy
      Bits/(Pixel*Frame) : 0.291
      Stream size : 1.27 GiB (93%)
      Writing library : Intel(R) MPEG-4 encoder based on Intel(R) IPP 6.1 build 137.20[6.1.137.763]
   Audio #1
      ID : 1
      Format : MPEG Audio
      Format version : Version 1
      Format profile : Layer 3
      Mode : Joint stereo
      Mode extension : MS Stereo
      Codec ID : 55
      Codec ID/Hint : MP3
      Duration : 1h 28mn
      Bit rate mode : Constant
      Bit rate : 128 Kbps
      Channel(s) : 2 channels
      Sampling rate : 48.0 KHz
      Compression mode : Lossy
      Stream size : 81.3 MiB (6%)
      Alignment : Aligned on interleaves
      Interleave, duration : 24 ms (0.60 video frame)
      Writing library : LAME3.98.2
Семпл: http://multi-up.com/874120

Релиз группы:

picpicpicpicpicpicpicpicpic
Для увеличения картинки щелкните мышкой по превью
Фильм который был выложен и зарегистрирован более двух месяцев назад буду раздавать с 23.00ч до 06.00ч утра ( вина в этом немоя, а пользователей которые неподдерживают раздачу)

Этот торрент недоступен для скачивания без регистрации, однако доступен по публичной magnet-ссылке (источники с публичных трекеров). Перед использованием ссылки прочтите, пожалуйста Пользовательское соглашение, а также как можно дольше оставайтесь на раздаче! Для того, чтобы скачать сам торрент-файл (который видит больше источников), а также для того, чтобы поблагодарить релизера, вам необходимо зарегистрироваться. Если регистрироваться лень - вы можете также попробовать скачать релиз по нашим партнерским ссылкам ниже.

[underverse.su].t28319.torrent
Трекер: Зарегистрирован   [ 10.06.2013 10:39 ]  

Статус: проверено (by Чертёнок at 10.06.2013 10:53)
Поблагодарили: 2 человека
Тип торрента: публичный - доступные источники с открытых трекеров: 
Размер: 1,36 GB (занимает 0,31 DVDR, для записи нужно 1 болванка DVDR/RW)
 
 

Яндекс.Метрика powered by Sphinx


В Н И М А Н И Е
Сайт не распространяет и не хранит электронные версии произведений, а лишь бесплатно и без коммерческой выгоды (не требуя взамен платы,
SMS и т.д.) предоставляет доступ к создаваемому пользователями каталогу ссылок на торрент-файлы, которые содержат только списки хеш-сумм.
Убедительная просьба с жалобами обращаться напрямую к пользователю, разместившему торрент файл.

Вверх