Loading...
Error

Невероятный Бёрт Уандерстоун / The Incredible Burt Wonderstone (Дон Скардино) [2013 г., комедия, HDRip-AVC] MVO + Original

Статистика раздачи
Размер:  1,03 GB   |    Зарегистрирован:  3 года 5 месяцев   |    Скачан:  24 раза

Полного источника не было: 2 года

Сидов:  0  |  0 KB/s  ]   Личеров:  0  |  0 KB/s  ]

* - сиды/пиры с внешних источников

   
 
Автор Сообщение

Чертёнок Пол:Муж

09-Июн-2013 14:00

Невероятный Бёрт Уандерстоун / The Incredible Burt Wonderstone


Год выпуска: 2013
Жанр: комедия
Страна: США
Режиссер: Дон Скардино
В ролях: Стив Карелл, Стив Бушеми, Оливия Уайлд, Джим Керри, Джеймс Гандольфини, Алан Аркин, Джей Мор, Михаэль Хербиг, Мэйсон Кук, Люк Ванек
Фильм рассказывает историю двух фокусников-конкурентов в Лас-Вегасе. Берт Уандерстоун однажды во время исполнения номера лишается напарника, и все оставшееся время пытается вернуть себе мотивацию и вернуться к любимому занятию.

Качество видео: HDRip-AVC
Продолжительность: 01:40:46
Формат: MKV
Видео: MPEG-4 AVC, 1024x424, 1051kbps
Аудио #1: русский, многоголосый закадровый [профессиональный][BaiBako], AC3 5.1, 384kbps
Аудио #2: оригинал, AC3 5.1, 384kbps
Автор рипа: Чертёнок

Код:

Общее
Уникальный идентификатор                 : 255163485511595337552605951102368135323 (0xBFF6B3228F7708949D3DE525BB28B89B)
Полное имя                               : C:\Users\Aivik-\Desktop\Фильмы\The.Incredible.Burt.Wonderstone.2013.by.Чертёнок.mkv
Формат                                   : Matroska
Версия формата                           : Version 2
Размер файла                             : 1,03 Гбайт
Продолжительность                        : 1 ч. 40 м.
Общий поток                              : 1464 Кбит/сек
Дата кодирования                         : UTC 2013-06-09 12:52:19
Программа кодирования                    : mkvmerge v3.3.0 ('Language') built on Mar 24 2010 14:59:24
Библиотека кодирования                   : libebml v0.8.0 + libmatroska v0.9.0

Видео
Идентификатор                            : 1
Формат                                   : AVC
Формат/Информация                        : Advanced Video Codec
Профиль формата                          : High@L3.1
Параметр CABAC формата                   : Да
Параметр ReFrames формата                : 8 кадров
Идентификатор кодека                     : V_MPEG4/ISO/AVC
Продолжительность                        : 1 ч. 40 м.
Битрейт                                  : 1051 Кбит/сек
Ширина                                   : 1024 пикселя
Высота                                   : 424 пикселя
Соотношение сторон                       : 2,40:1
Режим частоты кадров                     : Постоянный
Частота кадров                           : 23,976 кадра/сек
Цветовое пространство                    : YUV
Субдискретизация насыщенности            : 4:2:0
Битовая глубина                          : 8 бит
Тип развёртки                            : Прогрессивная
Бит/(Пиксели*Кадры)                      : 0.101
Размер потока                            : 754 Мбайт (72%)
Библиотека кодирования                   : x264 core 92 r1510 33d382a
Настройки программы                      : cabac=1 / ref=8 / deblock=1:-1:-1 / analyse=0x3:0x133 / me=umh / subme=7 / psy=1 / psy_rd=1.00:0.10 / mixed_ref=1 / me_range=16 / chroma_me=1 / trellis=2 / 8x8dct=1 / cqm=0 / deadzone=21,11 / fast_pskip=0 / chroma_qp_offset=-3 / threads=6 / sliced_threads=0 / nr=0 / decimate=1 / interlaced=0 / constrained_intra=0 / bframes=3 / b_pyramid=2 / b_adapt=2 / b_bias=0 / direct=3 / wpredb=1 / wpredp=2 / keyint=250 / keyint_min=25 / scenecut=40 / intra_refresh=0 / rc_lookahead=50 / rc=crf / mbtree=1 / crf=21.0 / qcomp=0.60 / qpmin=10 / qpmax=51 / qpstep=4 / ip_ratio=1.40 / aq=1:1.00
Default                                  : Да
Forced                                   : Нет

Аудио
Идентификатор                            : 2
Формат                                   : AC-3
Формат/Информация                        : Audio Coding 3
Расширение режима                        : CM (complete main)
Параметр Endianness формата              : Big
Идентификатор кодека                     : A_AC3
Продолжительность                        : 1 ч. 40 м.
Вид битрейта                             : Постоянный
Битрейт                                  : 384 Кбит/сек
Каналы                                   : 6 каналов
Расположение каналов                     : Front: L C R, Side: L R, LFE
Частота                                  : 48,0 КГц
Битовая глубина                          : 16 бит
Метод сжатия                             : С потерями
Размер потока                            : 275 Мбайт (26%)
Default                                  : Да
Forced                                   : Нет
picpicpicpicpicpic
Для увеличения картинки щелкните мышкой по превью


Этот торрент недоступен для скачивания без регистрации, однако доступен по публичной magnet-ссылке (источники с публичных трекеров). Перед использованием ссылки прочтите, пожалуйста Пользовательское соглашение, а также как можно дольше оставайтесь на раздаче! Для того, чтобы скачать сам торрент-файл (который видит больше источников), а также для того, чтобы поблагодарить релизера, вам необходимо зарегистрироваться. Если регистрироваться лень - вы можете также попробовать скачать релиз по нашим партнерским ссылкам ниже.

[underverse.su].t28298.torrent
Трекер: Зарегистрирован   [ 09.06.2013 14:00 ]  

Статус: проверено (by Чертёнок at 09.06.2013 14:01)
Поблагодарили: 2 человека
Тип торрента: публичный - доступные источники с открытых трекеров: 
Размер: 1,03 GB (занимает 0,23 DVDR, для записи нужно 1 болванка DVDR/RW)
 
 
Похожие темы
Форум Тема Автор Торрент Отв. Посл. сооб.
Зарубежное кино [DVDRip, Low-Res HDRip, и т.д.] Невероятные приключения Шарпей / Sharpay's Fabulous Adventure (Майкл Лембек) [2011 г., мюзикл, драма, мелодрама, комедия, семейный , HDRip] Jimmy
0 | 0

0 | 707

2

18.09.2011 08:29

Зарубежное кино [DVDRip, Low-Res HDRip, и т.д.] Невероятный страх перед всем / A Fantastic Fear of Everything (Крис Хопвелл / Chris Hopewell) [2012, Великобритания, комедия, HDRip] VO (ViruseProject) 90ytr90
18 | 1

0 | 1157

7

23.02.2013 18:43

Зарубежное кино [DVDRip, Low-Res HDRip, и т.д.] Невероятный страх перед всем / A Fantastic Fear of Everything (Крис Хопвелл / Chris Hopewell) [2012, Великобритания, комедия, BDRip] VO (ViruseProject) + Eng 90ytr90
23 | 1

0 | 945

10

10.03.2013 18:26

Зарубежное кино [DVDRip, Low-Res HDRip, и т.д.] Невероятный Бёрт Уандерстоун / The Incredible Burt Wonderstone (Дон Скардино) [2013 г., комедия, HDTVRip] AVO (А. Дольский) 90ytr90
1 | 0

0 | 1149

45

04.04.2013 14:07

Зарубежное кино [DVDRip, Low-Res HDRip, и т.д.] Невероятный Бёрт Уандерстоун / The Incredible Burt Wonderstone (Дон Скардино) [2013 г., комедия, HDTVRip] MVO (BaiBako) + Eng 90ytr90
0 | 0

0 | 1208

34

11.04.2013 17:37

Зарубежное кино [DVDRip, Low-Res HDRip, и т.д.] Невероятные приключения американца в Армении / Lost and Found in Armenia ( Гор Киракосян) [2012 г., комедия, DVDRip] Dub Су-34
12 | 0

0 | 1403

46

08.06.2013 04:43

Зарубежное кино [DVDRip, Low-Res HDRip, и т.д.] Невероятный Бёрт Уандерстоун / The Incredible Burt Wonderstone (Дон Скардино) [2013 г., комедия, HDRip] MVO [лицензия] + Original Паукан
35 | 2

0 | 1104

34

26.06.2013 20:02

Кино СССР Невероятные приключения итальянцев в России (Эльдар Рязанов) [1973 г., комедия, приключения, DVDRip] 90ytr90
47 | 2

0 | 1681

22

22.10.2013 16:38

xUSSR сериалы Невероятные приключения Алины [01-04 из 04] (Виктория Держицкая) [2014 г., детектив, приключения, SatRip] konopic
1 | 0

0 | 932

26

14.07.2014 12:49

Зарубежные мультфильмы Невероятные приключения кота / Oggy et les cafards (Оливер Жан-Мари) [2013 г., мультфильм, комедия, семейный, DVDRip] 90ytr90
11 | 0

0 | 2092

75

07.12.2013 13:46

yxer80 Пол:Муж

15-Июн-2013 07:58

Давно ждал сей фильм.

миха7 

01-Июл-2013 04:45

как фильм

Яндекс.Метрика powered by Sphinx


В Н И М А Н И Е
Сайт не распространяет и не хранит электронные версии произведений, а лишь бесплатно и без коммерческой выгоды (не требуя взамен платы,
SMS и т.д.) предоставляет доступ к создаваемому пользователями каталогу ссылок на торрент-файлы, которые содержат только списки хеш-сумм.
Убедительная просьба с жалобами обращаться напрямую к пользователю, разместившему торрент файл.

Вверх