Loading...
Error

Как влюблённый / Like Someone In Love (Аббас Киаростами / Abbas Kiarostami) [2012 г., драма, DVDRip] VO (D.I.M.)

Статистика раздачи
Размер:  1,37 GB   |    Зарегистрирован:  3 года 5 месяцев   |    Скачан:  3 раза

Полного источника не было: 3 года 4 месяца

Сидов:  0  |  0 KB/s  ]   Личеров:  0  |  0 KB/s  ]

* - сиды/пиры с внешних источников

   
 
Автор Сообщение

Доктор Ватсон Пол:Муж

09-Июн-2013 07:30

Как влюблённый / Like Someone In Love


Год выпуска: 2012
Жанр: драма
Страна: Франция , Япония
Режиссер: Аббас Киаростами / Abbas Kiarostami
В ролях: Тадаси Окуно / Tadashi Okuno Рин Таканаси / Rin Takanashi Рё Касе / Ryo Kase Денден / Denden Рейко Мори / Reiko Mori
Сюжет фильма:
Токио. Он — пожилой мужчина, она — молодая женщина.
Она ничего не знает о нём, а ему кажется, что он знает о ней всё.
Она девушка лёгкого поведения, а он профессор социологии.
Однако обстоятельства их встречи не играют никакой роли в тех отношениях,
которые устанавливаются между ними всего за одни сутки…
Качество видео: DVDRip

Продолжительность: 1:49:41
Формат: AVI
Видео: XviD, 720*432 (1,667), ~ 1649 kbps
Аудио: русский, одноголосый закадровый [любительский (D.I.M.)], MP3 2.0, 128 kbps

Код:

Общее
Полное имя : D:\TORENT\РАЗДАЧИ (РИПЫ)\Like Someone In Love.avi
Формат : AVI
Формат/Информация : Audio Video Interleave
Размер файла : 1,37 Гбайт
Продолжительность : 1 ч. 49 м.
Общий поток : 1786 Кбит/сек
Программа кодирования : VirtualDubModRus 1.5.10.2 (build 2542/release)
Библиотека кодирования : VirtualDubMod build 2542/release

Видео
Идентификатор : 0
Формат : MPEG-4 Visual
Профиль формата : Advanced Simple@L5
Параметр BVOP формата : Нет
Параметр QPel формата : Нет
Параметр GMC формата : Без точки перехода
Параметр матрицы формата : Выборочная
Идентификатор кодека : XVID
Идентификатор кодека/Подсказка : XviD
Продолжительность : 1 ч. 49 м.
Битрейт : 1649 Кбит/сек
Ширина : 720 пикс.
Высота : 432 пикс.
Соотношение сторон : 1,667
Частота кадров : 23,976 кадр/сек
Цветовое пространство : YUV
Подвыборка цветности : 4:2:0
Битовая глубина : 8 бит
Тип развёртки : Прогрессивная
Метод сжатия : С потерями
Бит/(Пиксели*Кадры) : 0.221
Размер потока : 1,26 Гбайт (92%)
Библиотека кодирования : XviD 63

Аудио
Идентификатор : 1
Формат : MPEG Audio
Версия формата : Version 1
Профиль формата : Layer 3
Режим : Joint stereo
Расширение режима : MS Stereo
Идентификатор кодека : 55
Идентификатор кодека/Подсказка : MP3
Продолжительность : 1 ч. 49 м.
Вид битрейта : Постоянный
Битрейт : 128 Кбит/сек
Канал(ы) : 2 канала(ов)
Частота : 48,0 КГц
Метод сжатия : С потерями
Размер потока : 100 Мбайт (7%)
Выравнивание : Соединение по промежуткам
Продолжительность промежутка : 42 мс. (1,00 видеокадр)
Время предзагрузки промежутка : 504 ms
Библиотека кодирования : LAME3.98.2
Язык : Russian
Семпл: http://multi-up.com/873449

picpicpic
Для увеличения картинки щелкните мышкой по превью

Этот торрент недоступен для скачивания без регистрации, однако доступен по публичной magnet-ссылке (источники с публичных трекеров). Перед использованием ссылки прочтите, пожалуйста Пользовательское соглашение, а также как можно дольше оставайтесь на раздаче! Для того, чтобы скачать сам торрент-файл (который видит больше источников), а также для того, чтобы поблагодарить релизера, вам необходимо зарегистрироваться. Если регистрироваться лень - вы можете также попробовать скачать релиз по нашим партнерским ссылкам ниже.

[underverse.su].t28282.torrent
Трекер: Зарегистрирован   [ 09.06.2013 07:30 ]  

Статус: проверено (by Чертёнок at 09.06.2013 08:16)
Поблагодарили: 2 человека
Тип торрента: публичный - доступные источники с открытых трекеров: 
Размер: 1,37 GB (занимает 0,31 DVDR, для записи нужно 1 болванка DVDR/RW)
 
 

Яндекс.Метрика powered by Sphinx


В Н И М А Н И Е
Сайт не распространяет и не хранит электронные версии произведений, а лишь бесплатно и без коммерческой выгоды (не требуя взамен платы,
SMS и т.д.) предоставляет доступ к создаваемому пользователями каталогу ссылок на торрент-файлы, которые содержат только списки хеш-сумм.
Убедительная просьба с жалобами обращаться напрямую к пользователю, разместившему торрент файл.

Вверх