Loading...
Error

Урок зла / Lesson Of The Evil / Aku no kyo ten (Такаси Миикэ / Takashi Miike) [2012 г., драма, триллер, HDRip] Original (Jap) + Sub (Rus)

Статистика раздачи
Размер:  2,14 GB   |    Зарегистрирован:  3 года 5 месяцев   |    Скачан:  9 раз

Полного источника не было: 10 месяцев

Сидов:  0  |  0 KB/s  ]   Личеров:  0  |  0 KB/s  ]

* - сиды/пиры с внешних источников

   
 
Автор Сообщение

Доктор Ватсон Пол:Муж

09-Июн-2013 07:22

Урок зла / Lesson Of The Evil / Aku no kyô ten


Год выпуска: 2012
Жанр: драма, триллер
Страна: Япония
Режиссер: Такаси Миикэ / Takashi Miike
В ролях: Такаюки Ямада, Хидэаки Итё, Дэниэль Дженало, Саки Такаока, Фуми Никайдё, Сёта Сомэтани, Рио Канно, Кэнто Хаяси
Сюжет фильма:
Учитель старшей школы, Сейдзи Хасуми, пользуется огромной популярностью среди учеников. Они называют его просто "Хасуми". Родители и другие учителя считают его идеальным учителем. Никто даже и не догадывается, что он - самый настоящий психопат, который не чувствует симпатии, ни жалости к окружающим.
Когда у него возникает проблема с кем-то из учеников или учителей, он тихо избавляется от проблемного объекта, т.е. убивает его.
Однажды Хасуми совершает ошибку, и учащиеся его класса становятся свидетелями очередного убийства. У безжалостного Хасуми нет другого выхода, как убить их всех...

Качество видео: HDRip

Продолжительность: 02:09:04
Формат: AVI
Видео: XviD, 720x304 (2.37:1), 1983 kbps
Аудио: японский, оригинал, AC3 5.1, 384 kbps
Субтитры: тип: внешние, русский, формат: SRT

Код:

Format : AVI
Format/Info : Audio Video Interleave
Format profile : OpenDML
File size : 2.14 GiB
Duration : 2h 9mn
Overall bit rate : 2 374 Kbps
Writing application : VirtualDubMod 1.5.10.3 | www.virtualdub-fr.org || (build 2550/release)
Writing library : VirtualDubMod build 2550/release

Video
ID : 0
Format : MPEG-4 Visual
Format profile : Advanced Simple@L5
Format settings, BVOP : 1
Format settings, QPel : No
Format settings, GMC : No warppoints
Format settings, Matrix : Custom
Codec ID : XVID
Codec ID/Hint : XviD
Duration : 2h 9mn
Bit rate : 1 978 Kbps
Width : 720 pixels
Height : 304 pixels
Display aspect ratio : 2.35:1
Frame rate : 23.976 fps
Color space : YUV
Chroma subsampling : 4:2:0
Bit depth : 8 bits
Scan type : Progressive
Compression mode : Lossy
Bits/(Pixel*Frame) : 0.377
Stream size : 1.78 GiB (83%)
Writing library : XviD 73

Audio
ID : 1
Format : AC-3
Format/Info : Audio Coding 3
Mode extension : CM (complete main)
Format settings, Endianness : Big
Codec ID : 2000
Duration : 2h 9mn
Bit rate mode : Constant
Bit rate : 384 Kbps
Channel(s) : 6 channels
Channel positions : Front: L C R, Side: L R, LFE
Sampling rate : 48.0 KHz
Bit depth : 16 bits
Compression mode : Lossy
Stream size : 355 MiB (16%)
Alignment : Split accross interleaves
Interleave, duration : 42 ms (1.00 video frame)
Interleave, preload duration : 500 ms
Семпл: http://multi-up.com/873311

picpicpic
Для увеличения картинки щелкните мышкой по превью

Этот торрент недоступен для скачивания без регистрации, однако доступен по публичной magnet-ссылке (источники с публичных трекеров). Перед использованием ссылки прочтите, пожалуйста Пользовательское соглашение, а также как можно дольше оставайтесь на раздаче! Для того, чтобы скачать сам торрент-файл (который видит больше источников), а также для того, чтобы поблагодарить релизера, вам необходимо зарегистрироваться. Если регистрироваться лень - вы можете также попробовать скачать релиз по нашим партнерским ссылкам ниже.

[underverse.su].t28281.torrent
Трекер: Зарегистрирован   [ 09.06.2013 07:22 ]  

Статус: проверено (by TERRAN at 09.06.2013 07:25)
Поблагодарили: пока никто не поблагодарил...
Тип торрента: публичный - доступные источники с открытых трекеров: 
Размер: 2,14 GB (занимает 0,49 DVDR, для записи нужно 1 болванка DVDR/RW)
 
 

Яндекс.Метрика powered by Sphinx


В Н И М А Н И Е
Сайт не распространяет и не хранит электронные версии произведений, а лишь бесплатно и без коммерческой выгоды (не требуя взамен платы,
SMS и т.д.) предоставляет доступ к создаваемому пользователями каталогу ссылок на торрент-файлы, которые содержат только списки хеш-сумм.
Убедительная просьба с жалобами обращаться напрямую к пользователю, разместившему торрент файл.

Вверх