Loading...
Error

Таможня (Александр Муратов ) [1982 г., детектив, DVDRip]

Статистика раздачи
Размер:  743 MB   |    Зарегистрирован:  3 года 6 месяцев   |    Скачан:  4 раза

Полного источника не было: 2 года 7 месяцев

Сидов:  0  |  0 KB/s  ]   Личеров:  0  |  0 KB/s  ]

* - сиды/пиры с внешних источников

   
 
Автор Сообщение

матроскин Пол:Муж

08-Июн-2013 20:41

Таможня


Год выпуска: 1982
Жанр: детектив
Страна: СССР
Режиссер: Александр Муратов
В ролях: Михаил Боярский, Валентин Гафт, Вадим Яковлев (II), Владимир Ерёмин, Татьяна Ташкова, Валерий Захарьев, Юрий Башков, Виктор Ильичёв, Иван Краско, Вячеслав Сорокин, Константин Бутаев
Сюжет фильма:
На теплоходе "Амур" во время рейса пропал моторист. При таможенном досмотре в машинном отделении находят контрабандное золото, после чего бесследно исчезает судовой врач Малышев. Клубок этих загадочных событий и предстоит распутать новому сотруднику - молодому таможеннику Юрию Хорунжеву...


Качество видео: DVDRip

Продолжительность: 01:13:57
Формат: avi
Видео: XviD, 688x560, 1267 kbps
Аудио: русский, оригинал, MP3 2.0, 128 kbps

Код:

General
Complete name                    : C:\Users\Security\Desktop\Таможня.avi
Format                           : AVI
Format/Info                      : Audio Video Interleave
File size                        : 743 MiB
Duration                         : 1h 13mn
Overall bit rate                 : 1 405 Kbps
Writing application              : VirtualDubMod 1.5.10.2 (build 2540/release)
Writing library                  : VirtualDubMod build 2540/release

Video
ID                               : 0
Format                           : MPEG-4 Visual
Format profile                   : Streaming Video@L1
Format settings, BVOP            : Yes
Format settings, QPel            : No
Format settings, GMC             : No warppoints
Format settings, Matrix          : Default (H.263)
Codec ID                         : XVID
Codec ID/Hint                    : XviD
Duration                         : 1h 13mn
Bit rate                         : 1 268 Kbps
Width                            : 688 pixels
Height                           : 560 pixels
Display aspect ratio             : 1.229
Frame rate                       : 25.000 fps
Resolution                       : 24 bits
Colorimetry                      : 4:2:0
Scan type                        : Progressive
Bits/(Pixel*Frame)               : 0.132
Stream size                      : 671 MiB (90%)
Writing library                  : XviD 1.2.1 (UTC 2008-12-04)

Audio
ID                               : 1
Format                           : MPEG Audio
Format version                   : Version 1
Format profile                   : Layer 3
Codec ID                         : 55
Codec ID/Hint                    : MP3
Duration                         : 1h 13mn
Bit rate mode                    : Constant
Bit rate                         : 128 Kbps
Channel(s)                       : 2 channels
Sampling rate                    : 44.1 KHz
Resolution                       : 16 bits
Stream size                      : 67.7 MiB (9%)
Alignment                        : Split accross interleaves
Interleave, duration             : 40 ms (1.00 video frame)
Interleave, preload duration     : 500 ms

picpicpicpicpicpic
Для увеличения картинки щелкните мышкой по превью

Этот торрент недоступен для скачивания без регистрации, однако доступен по публичной magnet-ссылке (источники с публичных трекеров). Перед использованием ссылки прочтите, пожалуйста Пользовательское соглашение, а также как можно дольше оставайтесь на раздаче! Для того, чтобы скачать сам торрент-файл (который видит больше источников), а также для того, чтобы поблагодарить релизера, вам необходимо зарегистрироваться. Если регистрироваться лень - вы можете также попробовать скачать релиз по нашим партнерским ссылкам ниже.

[underverse.su].t28269.torrent
Трекер: Зарегистрирован   [ 08.06.2013 20:41 ]  

Статус: проверено (by матроскин at 08.06.2013 20:48)
Поблагодарили: 1 человек
Тип торрента: публичный - доступные источники с открытых трекеров: 
Размер: 743 MB (занимает 0,17 DVDR, для записи нужно 1 болванка DVDR/RW)
 
 

матроскин Пол:Муж

08-Июн-2013 20:43


Яндекс.Метрика powered by Sphinx


В Н И М А Н И Е
Сайт не распространяет и не хранит электронные версии произведений, а лишь бесплатно и без коммерческой выгоды (не требуя взамен платы,
SMS и т.д.) предоставляет доступ к создаваемому пользователями каталогу ссылок на торрент-файлы, которые содержат только списки хеш-сумм.
Убедительная просьба с жалобами обращаться напрямую к пользователю, разместившему торрент файл.

Вверх