Loading...
Error

Легенда №17 ( Николай Лебедев) [2012 г., спорт, драма, биография, BDRip] HQ Underverse

Статистика раздачи
Размер:  2,17 GB   |    Зарегистрирован:  2 года 11 месяцев   |    Скачан:  15 раз

Полного источника не было: 7 месяцев

Сидов:  0  |  0 KB/s  ]   Личеров:  0  |  0 KB/s  ]

* - сиды/пиры с внешних источников

   
 
Автор Сообщение

Печаль'ka Пол:Жен

08-Июн-2013 19:15

Легенда №17


Год выпуска: 2012
Жанр: спорт, драма, биография
Страна: Россия
Режиссер: Николай Лебедев
В ролях: Данила Козловский, Олег Меньшиков, Светлана Иванова, Владимир Меньшов, Александр Лобанов, Сергей Генкин, Роман Мадянов, Александр Яковлев, Алехандра Грепи, Борис Щербаков, Дарья Екамасова, Хавьер Альсина, Даниэль Ольбрыхский, Валентин Смирнитский, Нина Усатова, Александр Рагулин, Никита Емшанов, Александр Харламов, Руслан Ягудин, Нина Гребешкова, Сеня Романов, Настя Лебедева, Татьяна Харламова, Игорь Петров, Александр Числов, Алексей Иванов, Ирина Лачина, Марина Майко, Алексей Елистратов, Ольга Остроумова
Сюжет фильма:
2 сентября 1972 года. Монреаль. Хоккейная сборная СССР с разгромным счетом 7:3 победила канадских профессионалов из НХЛ в стартовом матче эпохальной Суперсерии СССР-Канада. Это была не просто игра, это была битва за свою страну, которая перевернула мировое представление о хоккее.

Теперь весь мир знал его просто по номеру «17». Валерий Харламов, забивший в том матче 2 шайбы, мгновенно взлетел на вершину славы. Сбылась его мечта -упорство, спортивный талант и суровые уроки великого тренера Анатолия Тарасова сделали из «номера 17» легенду мирового хоккея.

  • Мировая премьера: 18 апреля 2013
  • Российская премьера: 18 апреля 2013, «Централ Партнершип»

Качество видео: BDRip

Продолжительность: 02:13:53
Формат: avi
Видео: XviD, 720x304, 1922 kbps
Аудио: русский, оригинал, AC3 5.1, 384 kbps

Код:

General
Complete name                    : D:\Video\HQ\Legenda.№17.BDRip.XviD.AC3.Rus.O.HQ.Underverse.avi
Format                           : AVI
Format/Info                      : Audio Video Interleave
Format profile                   : OpenDML
File size                        : 2.17 GiB
Duration                         : 2h 13mn
Overall bit rate                 : 2 318 Kbps
Writing application              : VirtualDubMod 1.5.10.2 (build 2540/release)
Writing library                  : VirtualDubMod build 2540/release

Video
ID                               : 0
Format                           : MPEG-4 Visual
Format profile                   : Streaming Video@L1
Format settings, BVOP            : Yes
Format settings, QPel            : No
Format settings, GMC             : No warppoints
Format settings, Matrix          : Custom
Muxing mode                      : Packed bitstream
Codec ID                         : XVID
Codec ID/Hint                    : XviD
Duration                         : 2h 13mn
Bit rate                         : 1 922 Kbps
Width                            : 720 pixels
Height                           : 304 pixels
Display aspect ratio             : 2.35
Frame rate                       : 24.000 fps
Resolution                       : 24 bits
Colorimetry                      : 4:2:0
Scan type                        : Progressive
Bits/(Pixel*Frame)               : 0.366
Stream size                      : 1.80 GiB (83%)
Writing library                  : XviD 64

Audio
ID                               : 1
Format                           : AC-3
Format/Info                      : Audio Coding 3
Codec ID                         : 2000
Duration                         : 2h 13mn
Bit rate mode                    : Constant
Bit rate                         : 384 Kbps
Channel(s)                       : 6 channels
Channel positions                : Front: L C R, Surround: L R, LFE
Sampling rate                    : 48.0 KHz
Stream size                      : 368 MiB (17%)
Alignment                        : Split accross interleaves
Interleave, duration             : 42 ms (1.00 video frame)
Interleave, preload duration     : 500 ms

Релиз группы:

pic pic pic
pic pic pic
Для увеличения картинки щелкните мышкой по превью

Этот торрент недоступен для скачивания без регистрации, однако доступен по публичной magnet-ссылке (источники с публичных трекеров). Перед использованием ссылки прочтите, пожалуйста Пользовательское соглашение, а также как можно дольше оставайтесь на раздаче! Для того, чтобы скачать сам торрент-файл (который видит больше источников), а также для того, чтобы поблагодарить релизера, вам необходимо зарегистрироваться. Если регистрироваться лень - вы можете также попробовать скачать релиз по нашим партнерским ссылкам ниже.

[underverse.su].t34002.torrent
Трекер: Зарегистрирован   [ 10.12.2013 12:32 ]  

Статус: проверено (by Печаль'ka at 10.12.2013 12:32)
Поблагодарили: 8 человек
Тип торрента: публичный - доступные источники с открытых трекеров: 
Размер: 2,17 GB (занимает 1/2 DVDR, для записи нужно 1 болванка DVDR/RW)
 
 
Похожие темы
Форум Тема Автор Торрент Отв. Посл. сооб.
Наше кино [DVDRip, Low-Res HDRip, и т.д.] Легенда №17 (Николай Лебедев) [2013 г., биография, спорт, BDRip] TERRAN
8 | 0

1 | 1166

175

18.01.2014 12:08

Наше кино [DVDRip, Low-Res HDRip, и т.д.] Легенда №17 (Николай Лебедев) [2013 г., биография, спорт, HDRip] TERRAN
10 | 0

1 | 1381

223

31.12.2013 23:23

Наше кино [DVDRip, Low-Res HDRip, и т.д.] Легенда №17 (Николай Лебедев) [2013 г., биография, спорт, HDRip] TERRAN
0 | 0

0 | 598

14

24.05.2013 18:13

Наше кино [DVD / HDDVD / BD / Remux] Легенда №17 (Николай Лебедев) [2013 г., биография, спорт, Blu-Ray] TERRAN
21 | 1

1 | 1300

38

28.08.2013 20:27

Наше кино [HDDVDRip / BDRip / WEB-DL / HDTV 1080/720р] Легенда №17 (Николай Лебедев) [2013 г., спорт, драма, биография, WEB-DLRip 720p] RG NewCinema
4 | 0

2 | 1797

157

29.11.2013 05:49

* Видео для смартфонов Легенда №17 [2013 г., Биография, спорт, HDRip] | КПК | Лицензия Чертёнок

0 | 655

07.06.2013 10:03

pingvin21 Пол:Муж

11-Янв-2014 17:16

Спасибо автору за раздачу! Смотрел этот фильм в кино. Отличный фильм. Захотелось пересмотреть.

Яндекс.Метрика powered by Sphinx


В Н И М А Н И Е
Сайт не распространяет и не хранит электронные версии произведений, а лишь бесплатно и без коммерческой выгоды (не требуя взамен платы,
SMS и т.д.) предоставляет доступ к создаваемому пользователями каталогу ссылок на торрент-файлы, которые содержат только списки хеш-сумм.
Убедительная просьба с жалобами обращаться напрямую к пользователю, разместившему торрент файл.

Вверх