Loading...
Error

Наградить (посмертно) (Борис Григорьев) [1986 г., драма, военный, DVDRip]

Статистика раздачи
Размер:  745 MB   |    Зарегистрирован:  3 года 6 месяцев   |    Скачан:  1 раз

Полного источника не было: 14 часов

Сидов:  0  |  0 KB/s  ]   Личеров:  0  |  0 KB/s  ]

* - сиды/пиры с внешних источников

   
 
Автор Сообщение

матроскин Пол:Муж

08-Июн-2013 08:07

Наградить (посмертно)


Год выпуска: 1986
Жанр: драма, военный
Страна: СССР
Режиссер: Борис Григорьев
В ролях: Александр Тимошкин, Евгений Леонов-Гладышев, Михаил Жигалов, Марина Яковлева, Георгий Дрозд, Владимир Стеклов, Георгий Юматов, Марина Левтова, Юрий Катин-Ярцев, Виктор Шульгин
Сюжет фильма:
Фильм Посвящается 70-летию Советской милиции.
Зимой 1945 года фронтовой разведчик Юрий Соснин, получив контузию , оказывается в госпитале. Сочтя его погибшим, Юрия наградили посмертно. После выписки герой, утратив память, стал работать шофером. Узнав о его судьбе, жулики вовлекают Юрия в свою шайку, и принуждают угнать машину. Но сотрудник милиции, узнав своего однополчанина, помогает ему восстановить прошлое и затем привлекает к участию в операции по уничтожению банды.


Качество видео: DVDRip

Продолжительность: 01:23:10
Формат: avi
Видео: XviD, 640x336, 1114 kbps
Аудио: русский, оригинал, MP3 2.0, 128 kbps

Код:

General
Complete name                    : C:\Users\Security\Desktop\Наградить посмертно.avi
Format                           : AVI
Format/Info                      : Audio Video Interleave
File size                        : 745 MiB
Duration                         : 1h 23mn
Overall bit rate                 : 1 252 Kbps
Director                         : bm11
Writing application              : VirtualDubMod 1.5.10.2 (build 2540/release)

Video
ID                               : 0
Format                           : MPEG-4 Visual
Format profile                   : Simple@L3
Format settings, BVOP            : Yes
Format settings, QPel            : No
Format settings, GMC             : No warppoints
Format settings, Matrix          : Default (H.263)
Muxing mode                      : Packed bitstream
Codec ID                         : XVID
Codec ID/Hint                    : XviD
Duration                         : 1h 23mn
Bit rate                         : 1 115 Kbps
Width                            : 640 pixels
Height                           : 336 pixels
Display aspect ratio             : 1.905
Frame rate                       : 25.000 fps
Resolution                       : 24 bits
Colorimetry                      : 4:2:0
Scan type                        : Progressive
Bits/(Pixel*Frame)               : 0.207
Stream size                      : 663 MiB (89%)
Writing library                  : XviD 1.0.3 (UTC 2004-12-20)

Audio
ID                               : 1
Format                           : MPEG Audio
Format version                   : Version 1
Format profile                   : Layer 3
Codec ID                         : 55
Codec ID/Hint                    : MP3
Duration                         : 1h 23mn
Bit rate mode                    : Constant
Bit rate                         : 128 Kbps
Channel(s)                       : 2 channels
Sampling rate                    : 48.0 KHz
Resolution                       : 16 bits
Stream size                      : 76.1 MiB (10%)
Alignment                        : Aligned on interleaves
Interleave, duration             : 40 ms (1.00 video frame)
Interleave, preload duration     : 504 ms

picpicpicpicpicpic
Для увеличения картинки щелкните мышкой по превью

Этот торрент недоступен для скачивания без регистрации, однако доступен по публичной magnet-ссылке (источники с публичных трекеров). Перед использованием ссылки прочтите, пожалуйста Пользовательское соглашение, а также как можно дольше оставайтесь на раздаче! Для того, чтобы скачать сам торрент-файл (который видит больше источников), а также для того, чтобы поблагодарить релизера, вам необходимо зарегистрироваться. Если регистрироваться лень - вы можете также попробовать скачать релиз по нашим партнерским ссылкам ниже.

[underverse.su].t28252.torrent
Трекер: Зарегистрирован   [ 08.06.2013 08:07 ]  

Статус: проверено (by матроскин at 08.06.2013 08:09)
Поблагодарили: пока никто не поблагодарил...
Тип торрента: публичный - доступные источники с открытых трекеров: 
Размер: 745 MB (занимает 0,17 DVDR, для записи нужно 1 болванка DVDR/RW)
 
 
Похожие темы
Форум Тема Автор Торрент Отв. Посл. сооб.
Кино СССР Наградить (посмертно) (Борис Григорьев) [1986 г., боевик, криминал, DVDRip-AVC] konopic
0 | 1

0 | 577

5

08.04.2014 13:16

матроскин Пол:Муж

08-Июн-2013 08:09



.

Яндекс.Метрика powered by Sphinx


В Н И М А Н И Е
Сайт не распространяет и не хранит электронные версии произведений, а лишь бесплатно и без коммерческой выгоды (не требуя взамен платы,
SMS и т.д.) предоставляет доступ к создаваемому пользователями каталогу ссылок на торрент-файлы, которые содержат только списки хеш-сумм.
Убедительная просьба с жалобами обращаться напрямую к пользователю, разместившему торрент файл.

Вверх