Loading...
Error

Внимание! Всем постам... (Игорь Вознесенский ) [1985 г., детектив , TVRip]

Статистика раздачи
Размер:  738 MB   |    Зарегистрирован:  3 года 5 месяцев   |    Скачан:  2 раза

Полного источника не было: 6 часов

Сидов:  0  |  0 KB/s  ]   Личеров:  0  |  0 KB/s  ]

* - сиды/пиры с внешних источников

   
 
Автор Сообщение

матроскин Пол:Муж

08-Июн-2013 07:45

Внимание! Всем постам...


Год выпуска: 1985
Жанр: детектив
Страна: СССР
Режиссер: Игорь Вознесенский
В ролях: Андрей Ростоцкий, Анатолий Грачёв, Вера Сотникова, Андрей Мартынов, Владимир Никитин, Юрий Чернов, Георгий Юматов, Лариса Лужина, Антон Вознесенский, Юрий Назаров, Борис Токарев
Сюжет фильма:
Бывший десантник Виктор Кольцов поступил на работу в милицию. Однажды, окончив дежурство, он заметил в подворотне подозрительного человека и узнал в нём особо опасного преступника. Он попытался его задержать, но получил тяжёлое ранение. Однако, несмотря на это, Виктор продолжает преследование...


Качество видео: TVRip

Продолжительность: 01:16:26
Формат: avi
Видео: XviD, 704x384, 1248 kbps
Аудио: русский, оригинал, MP3 1, 96 kbps

Код:

General
Complete name                    : C:\Users\Security\Desktop\Внимание! Всем постам.avi
Format                           : AVI
Format/Info                      : Audio Video Interleave
Format settings                  : rec
File size                        : 738 MiB
Duration                         : 1h 16mn
Overall bit rate                 : 1 350 Kbps

Video
ID                               : 0
Format                           : MPEG-4 Visual
Format profile                   : Streaming Video@L1
Format settings, BVOP            : Yes
Format settings, QPel            : No
Format settings, GMC             : No warppoints
Format settings, Matrix          : Default (MPEG)
Codec ID                         : XVID
Codec ID/Hint                    : XviD
Duration                         : 1h 16mn
Bit rate                         : 1 248 Kbps
Width                            : 704 pixels
Height                           : 384 pixels
Display aspect ratio             : 16/9
Frame rate                       : 25.000 fps
Resolution                       : 24 bits
Colorimetry                      : 4:2:0
Scan type                        : Progressive
Bits/(Pixel*Frame)               : 0.185
Stream size                      : 683 MiB (92%)
Writing library                  : XviD 1.2.1 (UTC 2008-12-04)

Audio
ID                               : 1
Format                           : MPEG Audio
Format version                   : Version 1
Format profile                   : Layer 3
Codec ID                         : 55
Codec ID/Hint                    : MP3
Duration                         : 1h 16mn
Bit rate mode                    : Constant
Bit rate                         : 96.0 Kbps
Channel(s)                       : 1 channel
Sampling rate                    : 48.0 KHz
Resolution                       : 16 bits
Stream size                      : 52.5 MiB (7%)
Alignment                        : Aligned on interleaves
Interleave, duration             : 640 ms (16.01 video frames)
Interleave, preload duration     : 216 ms
Writing library                  : LAME3.98r
Encoding settings                : -m m -V 4 -q 0 -lowpass 20.5 -b 96

picpicpicpicpicpic
Для увеличения картинки щелкните мышкой по превью

Этот торрент недоступен для скачивания без регистрации, однако доступен по публичной magnet-ссылке (источники с публичных трекеров). Перед использованием ссылки прочтите, пожалуйста Пользовательское соглашение, а также как можно дольше оставайтесь на раздаче! Для того, чтобы скачать сам торрент-файл (который видит больше источников), а также для того, чтобы поблагодарить релизера, вам необходимо зарегистрироваться. Если регистрироваться лень - вы можете также попробовать скачать релиз по нашим партнерским ссылкам ниже.

[underverse.su].t28251.torrent
Трекер: Зарегистрирован   [ 08.06.2013 07:45 ]  

Статус: проверено (by матроскин at 08.06.2013 07:50)
Поблагодарили: пока никто не поблагодарил...
Тип торрента: публичный - доступные источники с открытых трекеров: 
Размер: 738 MB (занимает 0,16 DVDR, для записи нужно 1 болванка DVDR/RW)
 
 
Похожие темы
Форум Тема Автор Торрент Отв. Посл. сооб.
* Dorama и live-action Внимание! Для чего предназначен этот раздел или Dorama & live-action - о явлении Печаль'ka

1 | 5134

05.12.2012 19:52

матроскин Пол:Муж

08-Июн-2013 08:24

Мы не боги

( песня из фильма Внимание! Всем постам...)

Без несчастий прожить каждый рад бы,
Хорошо б без обид, без врагов...
А на тех, кто в беде станет рядом
Вы надеятесь, как на богов.

Припев:

Мы не боги, а мы люди
Просто люди из крови и плоти
Также трудно, также больно
Как и всем нам бывает порой...
Просто это, просто это
Просто это такая работа.
Охранять, охранять
Охранять Вашу жизнь и покой.

Наш покой не затишье, а схватка
Не на день, не на час - навсегда
Презираю сказавших когда-то,
Что чужая беда- не беда.

Припев.

А в награду- негромкие трубы
Ни эпитетов пышных в словах,
Знаем, если кому-нибудь трудно
Пальцы ищут на диске "ноль -два"

Припев.

Яндекс.Метрика powered by Sphinx


В Н И М А Н И Е
Сайт не распространяет и не хранит электронные версии произведений, а лишь бесплатно и без коммерческой выгоды (не требуя взамен платы,
SMS и т.д.) предоставляет доступ к создаваемому пользователями каталогу ссылок на торрент-файлы, которые содержат только списки хеш-сумм.
Убедительная просьба с жалобами обращаться напрямую к пользователю, разместившему торрент файл.

Вверх