Loading...
Error

Контрольная закупка - Сыр Российский [2013 г., передача, информационная, познавательная , TVRip]

Статистика раздачи
Размер:  281 MB   |    Зарегистрирован:  3 года 6 месяцев   |    Скачан:  2 раза

Полного источника не было: 3 года

Сидов:  0  |  0 KB/s  ]   Личеров:  0  |  0 KB/s  ]

* - сиды/пиры с внешних источников

   
 
Автор Сообщение

матроскин Пол:Муж

08-Июн-2013 06:39

Контрольная закупка - Сыр Российский


Год выпуска: 2013
Жанр: передача, информационная, познавательная
Страна: Россия
Ведущие: Антон Привольнов, Наталья Семенихина
Выпущено: Первый канал ТВ
Сюжет фильма:
«Контрольная закупка» - своеобразная потребительская энциклопедия.Товары народного потребления здесь тестируют эксперты, проверяя их соответствие государственным стандартам. Ничто не может ускользнуть от взгляда опытных профессионалов.Вкусовые качества продуктов питания, наоборот, тестируют не специалисты, а обычные покупатели, случайно оказавшиеся в магазине. Народная экспертиза строга, но справедлива.Главная интрига передачи – соревнование брендов.Наверняка каждый из нас ощущал на себе очарование имиджа известных торговых марок. Находясь под давлением рекламы раскрученных брендов, мы некритично воспринимаем качество продуктов питания, которые они предлагают.Чтобы выводы экспертов «Контрольной закупки» были честными и непредвзятыми, по условиям передачи торговую марку товара невозможно определить в ходе проведения конкурса.
Качество видео: TVRip

Продолжительность: 00:23:59
Формат: avi
Видео: xvid, 704x400, 1496 kbps
Аудио: русский, оригинал, MP3 2.0, 128 kbps

Код:

General
Complete name                    : C:\Users\Security\Desktop\Контрол закупка.avi
Format                           : AVI
Format/Info                      : Audio Video Interleave
File size                        : 281 MiB
Duration                         : 23mn 59s
Overall bit rate                 : 1 637 Kbps

Video
Format                           : xvid
Codec ID                         : xvid
Duration                         : 23mn 59s
Bit rate                         : 1 496 Kbps
Width                            : 704 pixels
Height                           : 400 pixels
Display aspect ratio             : 16/9
Frame rate                       : 25.000 fps
Resolution                       : 24 bits
Bits/(Pixel*Frame)               : 0.213
Stream size                      : 257 MiB (91%)

Audio
ID                               : 1
Format                           : MPEG Audio
Format version                   : Version 1
Format profile                   : Layer 3
Codec ID                         : 55
Codec ID/Hint                    : MP3
Duration                         : 23mn 59s
Bit rate mode                    : Constant
Bit rate                         : 128 Kbps
Channel(s)                       : 2 channels
Sampling rate                    : 48.0 KHz
Resolution                       : 16 bits
Stream size                      : 22.0 MiB (8%)
Alignment                        : Aligned on interleaves
Interleave, duration             : 24 ms (0.60 video frame)

picpicpicpicpicpic
Для увеличения картинки щелкните мышкой по превью


Этот торрент недоступен для скачивания без регистрации, однако доступен по публичной magnet-ссылке (источники с публичных трекеров). Перед использованием ссылки прочтите, пожалуйста Пользовательское соглашение, а также как можно дольше оставайтесь на раздаче! Для того, чтобы скачать сам торрент-файл (который видит больше источников), а также для того, чтобы поблагодарить релизера, вам необходимо зарегистрироваться. Если регистрироваться лень - вы можете также попробовать скачать релиз по нашим партнерским ссылкам ниже.

[underverse.su].t28246.torrent
Трекер: Зарегистрирован   [ 08.06.2013 06:39 ]  

Статус: проверено (by матроскин at 08.06.2013 06:42)
Поблагодарили: пока никто не поблагодарил...
Тип торрента: публичный - доступные источники с открытых трекеров: 
Размер: 281 MB (занимает 0,06 DVDR, для записи нужно 1 болванка DVDR/RW)
 
 

матроскин Пол:Муж

08-Июн-2013 08:39


Яндекс.Метрика powered by Sphinx


В Н И М А Н И Е
Сайт не распространяет и не хранит электронные версии произведений, а лишь бесплатно и без коммерческой выгоды (не требуя взамен платы,
SMS и т.д.) предоставляет доступ к создаваемому пользователями каталогу ссылок на торрент-файлы, которые содержат только списки хеш-сумм.
Убедительная просьба с жалобами обращаться напрямую к пользователю, разместившему торрент файл.

Вверх