Loading...
Error

Невероятные приключения американца в Армении / Lost and Found in Armenia ( Гор Киракосян) [2012 г., комедия, DVDRip] Dub

Статистика раздачи
Размер:  1,46 GB   |    Зарегистрирован:  3 года 5 месяцев   |    Скачан:  46 раз

Полного источника не было: 1 год 5 месяцев

Сидов:  0  |  0 KB/s  ]   Личеров:  0  |  0 KB/s  ]

* - сиды/пиры с внешних источников

   
 
Автор Сообщение

Су-34 Пол:Муж

08-Июн-2013 04:43

Невероятные приключения американца в Армении / Lost and Found in Armenia


Год выпуска: 2012
Жанр: комедия
Страна: США , Армения
Режиссер: Гор Киракосян
В ролях: Дейв Шеридан, Джейми Кеннеди, Анджела Сарафян, Сердар Кэлсин, Бобби Беркмен, Мориса Харба, Алекс Калогномос, Марк Герагос, Вачик Мангассариан, Микаел Погосян
Сюжет фильма:
На морском побережье солнечной Турции царит беззаботное веселье, и только сын американского сенатора страдает от несчастной любви. Ничто не может вернуть ему вкус к жизни - ни море, ни друзья, ни красивые девушки. Но неожиданное событие вмиг излечивает героя от хандры: «попутный» ветер уносит его в соседнюю Армению, в маленькую горную деревню, где его - полуголого, с парашютом за спиной и говорящего на непонятном языке - принимают за турецко-азербайджанского шпиона. В стране, о существовании которой самонадеянный американец еще вчера даже не догадывался, его ждет невероятный водоворот событий — с похищением, перестрелкой, погоней и, конечно же, романтической историей…
  • Мировая премьера: 21 октября 2012
  • Российская премьера: 22 ноября 2012, «Кинопром», «All Media»


Качество видео: DVDRip

Продолжительность: 01:41:18
Формат: AVI
Видео: XviD, 720x400, 1600 kbps
Аудио: дублированный [лицензия], AC3 (mono), 448 kbps

Код:

General
 Complete name : D:\Torrents\Neverojatnye.prikljuchenija.amerikanca.v.Armenii.2012.P.DVDRip.avi
 Format : AVI
 Format/Info : Audio Video Interleave
 File size : 1.46 GiB
 Duration : 1h 41mn
 Overall bit rate : 2 058 Kbps
 Movie name : Neverojatnye.prikljuchenija.amerikanca.v.Armenii.2012.P.DVDRip
 Genre : Comedy
 Writing application : VirtualDubMod 1.5.10.3 | www.virtualdub-fr.org || (build 2550/release)
 Original source form/Name : Movie
 Video #0
 ID : 0
 Format : MPEG-4 Visual
 Format profile : Advanced Simple@L5
 Format settings, BVOP : 1
 Format settings, QPel : No
 Format settings, GMC : No warppoints
 Format settings, Matrix : Custom
 Codec ID : XVID
 Codec ID/Hint : XviD
 Duration : 1h 41mn
 Bit rate : 1 600 Kbps
 Width : 720 pixels
 Height : 400 pixels
 Display aspect ratio : 16:9
 Frame rate : 25.000 fps
 Color space : YUV
 Chroma subsampling : 4:2:0
 Bit depth : 8 bits
 Scan type : Progressive
 Compression mode : Lossy
 Bits/(Pixel*Frame) : 0.222
 Stream size : 1.13 GiB (78%)
 Writing library : XviD 1.2.1 (UTC 2008-12-04)
 Audio #1
 ID : 1
 Format : AC-3
 Format/Info : Audio Coding 3
 Mode extension : CM (complete main)
 Format settings, Endianness : Big
 Codec ID : 2000
 Duration : 1h 41mn
 Bit rate mode : Constant
 Bit rate : 448 Kbps
 Channel(s) : 6 channels
 Channel positions : Front: L C R, Side: L R, LFE
 Sampling rate : 48.0 KHz
 Bit depth : 16 bits
 Compression mode : Lossy
 Stream size : 325 MiB (22%)
 Alignment : Split accross interleaves
 Interleave, duration : 40 ms (1.00 video frame)
 Interleave, preload duration : 500 ms

Семпл: http://multi-up.com/873372
Релиз группы:

picpicpicpic
Для увеличения картинки щелкните мышкой по превью

Этот торрент недоступен для скачивания без регистрации, однако доступен по публичной magnet-ссылке (источники с публичных трекеров). Перед использованием ссылки прочтите, пожалуйста Пользовательское соглашение, а также как можно дольше оставайтесь на раздаче! Для того, чтобы скачать сам торрент-файл (который видит больше источников), а также для того, чтобы поблагодарить релизера, вам необходимо зарегистрироваться. Если регистрироваться лень - вы можете также попробовать скачать релиз по нашим партнерским ссылкам ниже.

[underverse.su].t28243.torrent
Трекер: Зарегистрирован   [ 08.06.2013 04:43 ]  

Статус: проверено (by TERRAN at 08.06.2013 06:10)
Поблагодарили: 2 человека
Тип торрента: публичный - доступные источники с открытых трекеров: 
Размер: 1,46 GB (занимает 1/3 DVDR, для записи нужно 1 болванка DVDR/RW)
 
 
Похожие темы
Форум Тема Автор Торрент Отв. Посл. сооб.
Зарубежное кино [DVDRip, Low-Res HDRip, и т.д.] Невероятные приключения Шарпей / Sharpay's Fabulous Adventure (Майкл Лембек) [2011 г., мюзикл, драма, мелодрама, комедия, семейный , HDRip] Jimmy
0 | 0

0 | 705

2

18.09.2011 08:29

Зарубежное кино [DVDRip, Low-Res HDRip, и т.д.] Невероятный страх перед всем / A Fantastic Fear of Everything (Крис Хопвелл / Chris Hopewell) [2012, Великобритания, комедия, HDRip] VO (ViruseProject) 90ytr90
18 | 1

0 | 1154

7

23.02.2013 18:43

Зарубежное кино [DVDRip, Low-Res HDRip, и т.д.] Невероятный страх перед всем / A Fantastic Fear of Everything (Крис Хопвелл / Chris Hopewell) [2012, Великобритания, комедия, BDRip] VO (ViruseProject) + Eng 90ytr90
23 | 1

0 | 944

10

10.03.2013 18:26

Зарубежное кино [DVDRip, Low-Res HDRip, и т.д.] Невероятный Бёрт Уандерстоун / The Incredible Burt Wonderstone (Дон Скардино) [2013 г., комедия, HDTVRip] AVO (А. Дольский) 90ytr90
1 | 0

0 | 1145

45

04.04.2013 14:07

Зарубежное кино [DVDRip, Low-Res HDRip, и т.д.] Невероятный Бёрт Уандерстоун / The Incredible Burt Wonderstone (Дон Скардино) [2013 г., комедия, HDTVRip] MVO (BaiBako) + Eng 90ytr90
0 | 0

0 | 1206

34

11.04.2013 17:37

Зарубежное кино [DVDRip, Low-Res HDRip, и т.д.] Невероятный Бёрт Уандерстоун / The Incredible Burt Wonderstone (Дон Скардино) [2013 г., комедия, HDRip-AVC] MVO + Original Чертёнок
3 | 0

2 | 1481

24

01.07.2013 04:45

Зарубежное кино [DVDRip, Low-Res HDRip, и т.д.] Невероятный Бёрт Уандерстоун / The Incredible Burt Wonderstone (Дон Скардино) [2013 г., комедия, HDRip] MVO [лицензия] + Original Паукан
35 | 2

0 | 1102

34

26.06.2013 20:02

Кино СССР Невероятные приключения итальянцев в России (Эльдар Рязанов) [1973 г., комедия, приключения, DVDRip] 90ytr90
47 | 2

0 | 1680

22

22.10.2013 16:38

xUSSR сериалы Невероятные приключения Алины [01-04 из 04] (Виктория Держицкая) [2014 г., детектив, приключения, SatRip] konopic
1 | 0

0 | 932

26

14.07.2014 12:49

Зарубежные мультфильмы Невероятные приключения кота / Oggy et les cafards (Оливер Жан-Мари) [2013 г., мультфильм, комедия, семейный, DVDRip] 90ytr90
11 | 0

0 | 2090

75

07.12.2013 13:46


Яндекс.Метрика powered by Sphinx


В Н И М А Н И Е
Сайт не распространяет и не хранит электронные версии произведений, а лишь бесплатно и без коммерческой выгоды (не требуя взамен платы,
SMS и т.д.) предоставляет доступ к создаваемому пользователями каталогу ссылок на торрент-файлы, которые содержат только списки хеш-сумм.
Убедительная просьба с жалобами обращаться напрямую к пользователю, разместившему торрент файл.

Вверх