Loading...
Error

Красные листья (Владимир Корш-Саблин ) [1958 г., киноповесть, VHSRip]

Статистика раздачи
Размер:  700 MB   |    Зарегистрирован:  3 года 5 месяцев   |    Скачан:  3 раза
Сидов:  1  |  0 KB/s  ]   Личеров:  0  |  0 KB/s  ]

* - сиды/пиры с внешних источников

   
 
Автор Сообщение

матроскин Пол:Муж

05-Июн-2013 18:23

Красные листья


Год выпуска: 1958
Жанр: киноповесть
Страна: СССР
Режиссер: Владимир Корш-Саблин
В ролях: Эдуард Павулс, Ия Арепина, Михаил Жаров, Клара Лучко, Евгений Карнаухов, Геннадий Мичурин, Владимир Чобур, Владимир Дедюшко, Ростислав Янковский, Николай Бармин, Здислав Стомма, Степан Бирилло, Константин Адашевский, Сергей Карнович-Валуа
Сюжет фильма:
1936 год. Районы западных областей Белоруссии охвачены революционным движением за воссоединение. Молодой повстанец Сергей Метельский по заданию коммунистического подполья направляется в соседний район, чтобы предупредить крестьян о концентрации сил полиции и отмене намечающейся демонстрации…


Качество видео: VHSRip

Продолжительность: 01:22:24
Формат: avi
Видео: DivX 5, 640x480, 1050 kbps
Аудио: русский, оригинал, MP3 2.0, 128 kbps

Код:

General
Complete name                    : C:\Users\Security\Desktop\Красные листья.avi
Format                           : AVI
Format/Info                      : Audio Video Interleave
File size                        : 700 MiB
Duration                         : 1h 22mn
Overall bit rate                 : 1 188 Kbps
Writing application              : VirtualDubMod 1.5.10.2 (build 2540/release)
Writing library                  : VirtualDub build 30009/release

Video
ID                               : 0
Format                           : MPEG-4 Visual
Format settings, BVOP            : Yes
Format settings, QPel            : No
Format settings, GMC             : No warppoints
Format settings, Matrix          : Default (H.263)
Muxing mode                      : Packed bitstream
Codec ID                         : DX50
Codec ID/Hint                    : DivX 5
Duration                         : 1h 22mn
Bit rate                         : 1 051 Kbps
Width                            : 640 pixels
Height                           : 480 pixels
Display aspect ratio             : 4/3
Frame rate                       : 25.000 fps
Resolution                       : 24 bits
Colorimetry                      : 4:2:0
Scan type                        : Progressive
Bits/(Pixel*Frame)               : 0.214
Stream size                      : 619 MiB (88%)
Writing library                  : DivX 6.8.3 (UTC 2008-06-07)

Audio
ID                               : 1
Format                           : MPEG Audio
Format version                   : Version 1
Format profile                   : Layer 3
Codec ID                         : 55
Codec ID/Hint                    : MP3
Duration                         : 1h 22mn
Bit rate mode                    : Constant
Bit rate                         : 128 Kbps
Channel(s)                       : 2 channels
Sampling rate                    : 48.0 KHz
Resolution                       : 16 bits
Stream size                      : 75.4 MiB (11%)
Alignment                        : Split accross interleaves
Interleave, duration             : 40 ms (1.00 video frame)
Interleave, preload duration     : 500 ms

picpicpicpicpicpic
Для увеличения картинки щелкните мышкой по превью

Этот торрент недоступен для скачивания без регистрации, однако доступен по публичной magnet-ссылке (источники с публичных трекеров). Перед использованием ссылки прочтите, пожалуйста Пользовательское соглашение, а также как можно дольше оставайтесь на раздаче! Для того, чтобы скачать сам торрент-файл (который видит больше источников), а также для того, чтобы поблагодарить релизера, вам необходимо зарегистрироваться. Если регистрироваться лень - вы можете также попробовать скачать релиз по нашим партнерским ссылкам ниже.

[underverse.su].t28176.torrent
Трекер: Зарегистрирован   [ 05.06.2013 18:23 ]  

Статус: проверено (by Паукан at 06.06.2013 07:54)
Поблагодарили: 2 человека
Тип торрента: публичный - доступные источники с открытых трекеров: 
Размер: 700 MB (занимает 0,16 DVDR, для записи нужно 1 болванка DVDR/RW)
 
 


Последний раз редактировалось: матроскин (06.06.2013 07:47), всего редактировалось 1 раз

матроскин Пол:Муж

05-Июн-2013 18:24



Последний раз редактировалось: матроскин (15.06.2013 03:01), всего редактировалось 1 раз

Паукан Пол:Муж

06-Июн-2013 06:09

матроскин писал(а):

Год выпуска: 1958

матроскин писал(а):

Качество видео: CAMRip
что-то не стыкуется...

Яндекс.Метрика powered by Sphinx


В Н И М А Н И Е
Сайт не распространяет и не хранит электронные версии произведений, а лишь бесплатно и без коммерческой выгоды (не требуя взамен платы,
SMS и т.д.) предоставляет доступ к создаваемому пользователями каталогу ссылок на торрент-файлы, которые содержат только списки хеш-сумм.
Убедительная просьба с жалобами обращаться напрямую к пользователю, разместившему торрент файл.

Вверх