Loading...
Error

Обманутые наукой. Телекинез. [2013 г., документальный, TVRip]

Статистика раздачи
Размер:  624 MB   |    Зарегистрирован:  3 года 6 месяцев   |    Скачан:  14 раз

Полного источника не было: 2 года

Сидов:  0  |  0 KB/s  ]   Личеров:  0  |  0 KB/s  ]

* - сиды/пиры с внешних источников

   
 
Автор Сообщение

матроскин Пол:Муж

05-Июн-2013 17:46

Обманутые наукой. Телекинез.


Год выпуска: 2013
Жанр: документальный
Страна: Россия
Режиссер: Анатолий Невельский
Выпущено: Телеканал РЕН-ТВ
Сюжет фильма:
Человек всегда стремился к могуществу и совершенству. Сотни ученых пытались создать совершенного индивида. И в мире есть люди, обладающие удивительными способностями... Стоит ли им завидовать? И пытаться достичь невозможного?
Качество видео: TVRip

Продолжительность: 00:48:20
Формат: avi
Видео: XviD, 704x400, 1667 kbps
Аудио: русский, оригинал, MP3 2.0, 128 kbps

Код:

General
Complete name                    : C:\Users\Security\Desktop\Обман наукой Телекенез.avi
Format                           : AVI
Format/Info                      : Audio Video Interleave
File size                        : 624 MiB
Duration                         : 48mn 20s
Overall bit rate                 : 1 805 Kbps
Writing application              : VirtualDubMod 1.5.10.2 (build 2540/release)
Writing library                  : VirtualDub build 32842/release

Video
ID                               : 0
Format                           : MPEG-4 Visual
Format profile                   : Streaming Video@L1
Format settings, BVOP            : Yes
Format settings, QPel            : No
Format settings, GMC             : No warppoints
Format settings, Matrix          : Default (H.263)
Muxing mode                      : Packed bitstream
Codec ID                         : XVID
Codec ID/Hint                    : XviD
Duration                         : 48mn 20s
Bit rate                         : 1 667 Kbps
Width                            : 704 pixels
Height                           : 400 pixels
Display aspect ratio             : 16/9
Frame rate                       : 25.000 fps
Resolution                       : 24 bits
Colorimetry                      : 4:2:0
Scan type                        : Progressive
Bits/(Pixel*Frame)               : 0.237
Stream size                      : 576 MiB (92%)
Writing library                  : XviD 64

Audio
ID                               : 1
Format                           : MPEG Audio
Format version                   : Version 1
Format profile                   : Layer 3
Codec ID                         : 55
Codec ID/Hint                    : MP3
Duration                         : 48mn 20s
Bit rate mode                    : Constant
Bit rate                         : 128 Kbps
Channel(s)                       : 2 channels
Sampling rate                    : 48.0 KHz
Resolution                       : 16 bits
Stream size                      : 44.3 MiB (7%)
Alignment                        : Aligned on interleaves
Interleave, duration             : 40 ms (1.00 video frame)
Interleave, preload duration     : 504 ms
Writing library                  : LAME3.90.3ЄЄЄЄЄЄЄЄЄЄ

picpicpicpicpicpic
Для увеличения картинки щелкните мышкой по превью

Этот торрент недоступен для скачивания без регистрации, однако доступен по публичной magnet-ссылке (источники с публичных трекеров). Перед использованием ссылки прочтите, пожалуйста Пользовательское соглашение, а также как можно дольше оставайтесь на раздаче! Для того, чтобы скачать сам торрент-файл (который видит больше источников), а также для того, чтобы поблагодарить релизера, вам необходимо зарегистрироваться. Если регистрироваться лень - вы можете также попробовать скачать релиз по нашим партнерским ссылкам ниже.

[underverse.su].t28175.torrent
Трекер: Зарегистрирован   [ 05.06.2013 17:46 ]  

Статус: проверено (by матроскин at 05.06.2013 17:58)
Поблагодарили: 1 человек
Тип торрента: публичный - доступные источники с открытых трекеров: 
Размер: 624 MB (занимает 0,14 DVDR, для записи нужно 1 болванка DVDR/RW)
 
 
Похожие темы
Форум Тема Автор Торрент Отв. Посл. сооб.
Научно-популярные фильмы Обманутые наукой. Телепатия. [2013 г., научно-популярный , TVRip] матроскин
0 | 0

1 | 1180

23

24.05.2013 05:43

матроскин Пол:Муж

05-Июн-2013 17:48


Яндекс.Метрика powered by Sphinx


В Н И М А Н И Е
Сайт не распространяет и не хранит электронные версии произведений, а лишь бесплатно и без коммерческой выгоды (не требуя взамен платы,
SMS и т.д.) предоставляет доступ к создаваемому пользователями каталогу ссылок на торрент-файлы, которые содержат только списки хеш-сумм.
Убедительная просьба с жалобами обращаться напрямую к пользователю, разместившему торрент файл.

Вверх