Loading...
Error

Секретные территории - Бледный огонь Вселенной. [2013 г., документальный, TVRip]

Статистика раздачи
Размер:  616 MB   |    Зарегистрирован:  1 год 4 месяца   |    Скачан:  16 раз
Сидов:  1  |  0 KB/s  ]   Личеров:  0  |  0 KB/s  ]

* - сиды/пиры с внешних источников

   
 
Автор Сообщение

матроскин Пол:Муж

05-Июн-2013 17:22

Секретные территории - Бледный огонь Вселенной.


Год выпуска: 2013
Жанр: документальный
Страна: Россия
Выпущено: Телеканал РЕН-ТВ
Сюжет фильма:
НЛО. До сих пор было принято считать, что это - гости из далекого космоса. Но сегодня эту версию подвергают сомнению. Все чаще звучит мнение, что неопознанные летающие объекты имеют земное происхождение.
Качество видео: TVRip

Продолжительность: 00:47:43
Формат: avi
Видео: XviD, 704x400, 1667 kbps
Аудио: русский, оригинал, MP3 2.0, 128 kbps

Код:

General
Complete name                    : C:\Users\Security\Desktop\Секрет терр Бледный огонь вселенной.avi
Format                           : AVI
Format/Info                      : Audio Video Interleave
File size                        : 616 MiB
Duration                         : 47mn 43s
Overall bit rate                 : 1 805 Kbps
Writing application              : VirtualDubMod 1.5.10.2 (build 2540/release)
Writing library                  : VirtualDub build 32842/release

Video
ID                               : 0
Format                           : MPEG-4 Visual
Format profile                   : Streaming Video@L1
Format settings, BVOP            : Yes
Format settings, QPel            : No
Format settings, GMC             : No warppoints
Format settings, Matrix          : Default (H.263)
Muxing mode                      : Packed bitstream
Codec ID                         : XVID
Codec ID/Hint                    : XviD
Duration                         : 47mn 43s
Bit rate                         : 1 667 Kbps
Width                            : 704 pixels
Height                           : 400 pixels
Display aspect ratio             : 16/9
Frame rate                       : 25.000 fps
Resolution                       : 24 bits
Colorimetry                      : 4:2:0
Scan type                        : Progressive
Bits/(Pixel*Frame)               : 0.237
Stream size                      : 569 MiB (92%)
Writing library                  : XviD 64

Audio
ID                               : 1
Format                           : MPEG Audio
Format version                   : Version 1
Format profile                   : Layer 3
Codec ID                         : 55
Codec ID/Hint                    : MP3
Duration                         : 47mn 43s
Bit rate mode                    : Constant
Bit rate                         : 128 Kbps
Channel(s)                       : 2 channels
Sampling rate                    : 48.0 KHz
Resolution                       : 16 bits
Stream size                      : 43.7 MiB (7%)
Alignment                        : Aligned on interleaves
Interleave, duration             : 40 ms (1.00 video frame)
Interleave, preload duration     : 504 ms
Writing library                  : LAME3.90.3ЄЄЄЄЄЄЄЄЄЄ

picpicpicpicpicpic
Для увеличения картинки щелкните мышкой по превью

Этот торрент недоступен для скачивания без регистрации, однако доступен по публичной magnet-ссылке (источники с публичных трекеров). Перед использованием ссылки прочтите, пожалуйста Пользовательское соглашение, а также как можно дольше оставайтесь на раздаче! Для того, чтобы скачать сам торрент-файл (который видит больше источников), а также для того, чтобы поблагодарить релизера, вам необходимо зарегистрироваться. Если регистрироваться лень - вы можете также попробовать скачать релиз по нашим партнерским ссылкам ниже.

[underverse.su].t28174.torrent
Трекер: Зарегистрирован   [ 05.06.2013 17:22 ]  

Статус: проверено (by матроскин at 05.06.2013 17:24)
Поблагодарили: 1 человек
Тип торрента: публичный - доступные источники с открытых трекеров: 
Размер: 616 MB (занимает 0,14 DVDR, для записи нужно 1 болванка DVDR/RW)
 
 
Похожие темы
Форум Тема Автор Торрент Отв. Посл. сооб.
Зарубежные сериалы Секретные материалы / The X-Files [Сезон: 1-9 / Серии: 1-202 (202)] (Крис Картер / Chris Carter) [1993-2002, Мистика, фантастика, детектив, триллер, DVDRip] MVO (Рен-ТВ) + MVO (ОРТ) + AVO (Юрий Живов) 8ad_R060d
252 | 399

2 | 128

2

09.08.2014 07:45

Научно-популярные фильмы Секретные эксперименты / Confidential experiments (5 фильмов) [2009 г., документальный, TVRip] oartemka178
0 | 1

1 | 1244

37

22.01.2011 07:02

Научно-популярные фильмы Секретные территории - Колесницы Богов. [2013 г., документальный, TVRip] матроскин
1 | 0

1 | 433

13

02.06.2013 07:44

Научно-популярные фильмы Секретные территории. Разум. Запретные знания [2013 г., документальный, TVRip] матроскин
1 | 0

2 | 1124

16

07.09.2013 13:59

Мультфильмы [HDDVDRip / BDRip / WEB-DL / HDTV 1080/720р] Секретные материалы Мстителей: Черная Вдова и Каратель / Avengers Confidential: Black Widow & Punisher (Кенити Симидзу / Kenichi Shimizu) [2014 г., мультфильм, фантастика, BDRip 720p] DVO... 90ytr90
44 | 3

0 | 159

7

18.06.2014 14:39

Релизы Секретные тропы: Ледяное сердце. Коллекционное издание / Secret Trails: Frozen Heart Collector's Edition [2013 г., Квест Поиск предметов] RUS [P] Станислав Карбанович
101 | 0

0 | 120

7

04.04.2014 15:58

матроскин Пол:Муж

05-Июн-2013 17:23


Яндекс.Метрика powered by Sphinx


В Н И М А Н И Е
Сайт не распространяет и не хранит электронные версии произведений, а лишь бесплатно и без коммерческой выгоды (не требуя взамен платы,
SMS и т.д.) предоставляет доступ к создаваемому пользователями каталогу ссылок на торрент-файлы, которые содержат только списки хеш-сумм.
Убедительная просьба с жалобами обращаться напрямую к пользователю, разместившему торрент файл.

Вверх