Loading...
Error

«Ковбои» / Серии: 1-16 [16] (Станислав Титаренко) [2013 г.,боевик, детектив, криминал, SatRip]

Статистика раздачи
Размер:  7,82 GB   |    Зарегистрирован:  3 года 5 месяцев   |    Скачан:  26 раз

Полного источника не было: 3 месяца 11 дней

Сидов:  0  |  0 KB/s  ]   Личеров:  0  |  0 KB/s  ]

* - сиды/пиры с внешних источников

   
 
Автор Сообщение

nemos Пол:Муж

05-Июн-2013 06:47



Год выпуска: 2013
Жанр: боевик, детектив, криминал
Страна: Россия
Режиссер: Станислав Титаренко
В ролях: Егор Бероев, Алексей Комашко, Светлана Смирнова-Марцинкевич, Роман Грибков, Олег Алмазов, Елена Радевич, Сергей Яценюк, Ирина Гершт, Дмитрий Орлов, Дианна Дезмари
Сюжет фильма:
Их двое — Ковальский и Бойцов. Стас Ковальский — домосед и примерный семьянин. Игорь Бойцов — «одинокий волк», живущий только работой. У них абсолютно разные интересы и образ жизни. Однако это не помешало им быть лучшей парой сотрудников в отделе по раскрытию умышленных убийств ГУ МВД по Санкт-Петербургу. Они оба энергичны, умны, профессиональны. За это их прозвали «ковбоями», соединив первые слоги их фамилий. Ковбойский тандем успешно справлялся с заданиями любой сложности, пока Бойцов не влюбился в медсестру Катю…


Качество видео: SatRip

Продолжительность: 00:43:13 серия
Формат: AVI
Видео: XviD, 720x384, 1 478 kbps
Аудио: русский, MP3 2.0, 128 kbps

Код:

F:\С underverse-3 Фильмы\Kovboi.2013.SATRip\Kowboi.(01.serija).2013.XviD.SATRip.avi
   General
      Complete name : F:\С underverse-3 Фильмы\Kovboi.2013.SATRip\Kowboi.(01.serija).2013.XviD.SATRip.avi
      Format : AVI
      Format/Info : Audio Video Interleave
      File size : 499 MiB
      Duration : 43mn 13s
      Overall bit rate : 1 616 Kbps
      Writing application : VirtualDubMod 1.5.10.2 (build 2540/release)
      Writing library : VirtualDubMod build 2540/release
   Video #0
      ID : 0
      Format : MPEG-4 Visual
      Format profile : Simple@L3
      Format settings, BVOP : No
      Format settings, QPel : No
      Format settings, GMC : No warppoints
      Format settings, Matrix : Default (H.263)
      Codec ID : XVID
      Codec ID/Hint : XviD
      Duration : 43mn 13s
      Bit rate : 1 478 Kbps
      Width : 720 pixels
      Height : 384 pixels
      Display aspect ratio : 1.85:1
      Frame rate : 25.000 fps
      Color space : YUV
      Chroma subsampling : 4:2:0
      Bit depth : 8 bits
      Scan type : Progressive
      Compression mode : Lossy
      Bits/(Pixel*Frame) : 0.214
      Stream size : 457 MiB (91%)
      Writing library : XviD 1.1.2 (UTC 2006-11-01)
   Audio #1
      ID : 1
      Format : MPEG Audio
      Format version : Version 1
      Format profile : Layer 3
      Mode : Joint stereo
      Mode extension : MS Stereo
      Codec ID : 55
      Codec ID/Hint : MP3
      Duration : 43mn 13s
      Bit rate mode : Constant
      Bit rate : 128 Kbps
      Channel(s) : 2 channels
      Sampling rate : 48.0 KHz
      Compression mode : Lossy
      Stream size : 39.6 MiB (8%)
      Alignment : Split accross interleaves
      Interleave, duration : 40 ms (1.00 video frame)
      Interleave, preload duration : 500 ms
      Writing library : LAME3.98
Семпл: http://multi-up.com/872570

picpicpicpicpicpicpicpicpicpicpicpicpicpicpicpicpicpicpic
Для увеличения картинки щелкните мышкой по превью
Сериал который был выложен и зарегистрирован более двух месяцев назад буду раздавать с 23.00ч до 06.00ч утра ( вина в этом немоя, а пользователей которые неподдерживают раздачу)

Этот торрент недоступен для скачивания без регистрации, однако доступен по публичной magnet-ссылке (источники с публичных трекеров). Перед использованием ссылки прочтите, пожалуйста Пользовательское соглашение, а также как можно дольше оставайтесь на раздаче! Для того, чтобы скачать сам торрент-файл (который видит больше источников), а также для того, чтобы поблагодарить релизера, вам необходимо зарегистрироваться. Если регистрироваться лень - вы можете также попробовать скачать релиз по нашим партнерским ссылкам ниже.

[underverse.su].t28395.torrent
Трекер: Зарегистрирован   [ 14.06.2013 02:55 ]  

Статус: проверено (by Печаль'ka at 14.06.2013 04:46)
Поблагодарили: 4 человека
Тип торрента: публичный - доступные источники с открытых трекеров: 
Размер: 7,82 GB (занимает 1,79 DVDR, для записи нужно 2 болванки DVDR/RW)
 
 


Последний раз редактировалось: nemos (06.11.2014 11:21), всего редактировалось 12 раз(а)

nemos Пол:Муж

05-Июн-2013 18:52

Торрент обновлен (16) cерия.

Яндекс.Метрика powered by Sphinx


В Н И М А Н И Е
Сайт не распространяет и не хранит электронные версии произведений, а лишь бесплатно и без коммерческой выгоды (не требуя взамен платы,
SMS и т.д.) предоставляет доступ к создаваемому пользователями каталогу ссылок на торрент-файлы, которые содержат только списки хеш-сумм.
Убедительная просьба с жалобами обращаться напрямую к пользователю, разместившему торрент файл.

Вверх