Loading...
Error

«Пираньи» / Серии: 1-8 [8] (Александр Аравин) [2013 г., приключения, SatRip]

Статистика раздачи
Размер:  3,91 GB   |    Зарегистрирован:  3 года 5 месяцев   |    Скачан:  28 раз

Полного источника не было: 8 месяцев

Сидов:  0  |  0 KB/s  ]   Личеров:  0  |  0 KB/s  ]

* - сиды/пиры с внешних источников

   
 
Автор Сообщение

nemos Пол:Муж

04-Июн-2013 18:45

Пираньи


Год выпуска: 2013
Жанр: приключения
Страна: Россия
Режиссер: Александр Аравин
В ролях: Иван Стебунов, Евгений Сидихин, Ольга Арнтгольц, Кирилл Плетнёв, Ирина Апексимова, Сергей Жигунов, Бибигуль Суюншалина, Аристарх Венес, Валерия Ланская, Николай Добрынин, Сагандык Жумадил, Дмитрий Муляр, Николай Козак, Сергей Шеховцов, Виктор Супрун, Любовь Руденко, Ю Ри Чой, Владимир Литвинов, Олег Васильков, Валерий Иваков, Анатолий Семёнов, Александр Давыдов, Анастасия Аравина, Лариса Виталь
Сюжет фильма:
Владивосток. Пограничники борются с рыбными браконьерами. Сверхприбыльный бизнес находится под присмотром криминальных авторитетов-рыбопромышленников - Виктора Лесницкого и Николая Шлыкова. Чтобы получить власть в городе в свои руки, они выдвигают свои кандидатуры на пост мэра Владивостока. Борьба идет на грани, но выясняется, что дети кровных врагов - дочь Лесницкого и сын Шлыкова - влюбились друг в друга. В борьбу мафиозных кланов также оказываются втянутыми пограничник Андрей Логинов и его сестра Вика, японская девушка Айко и браконьер Денис Капустин. Всем им предстоит пройти через серьезные трудности...


Качество видео: SatRip

Продолжительность: 00:44:10 серия
Формат: AVI
Видео: XviD, 720x400, 1444 kbps
Аудио: русский, MP3 2.0, 128 kbps

Код:

F:\С underverse-3 Фильмы\Piranii.2012.XviD.SATRip.SCTeam\Piranii.(1.serija.iz.8).2012.XviD.SATRip.SCTeam.avi
   General
      Complete name : F:\С underverse-3 Фильмы\Piranii.2012.XviD.SATRip.SCTeam\Piranii.(1.serija.iz.8).2012.XviD.SATRip.SCTeam.avi
      Format : AVI
      Format/Info : Audio Video Interleave
      File size : 500 MiB
      Duration : 44mn 10s
      Overall bit rate : 1 582 Kbps
      Writing application : VirtualDubMod 1.5.10.2 (build 2540/release)
      Writing library : VirtualDubMod build 2540/release
   Video #0
      ID : 0
      Format : MPEG-4 Visual
      Format profile : Advanced Simple@L5
      Format settings, BVOP : 2
      Format settings, QPel : No
      Format settings, GMC : No warppoints
      Format settings, Matrix : Default (MPEG)
      Codec ID : XVID
      Codec ID/Hint : XviD
      Duration : 44mn 10s
      Bit rate : 1 444 Kbps
      Width : 720 pixels
      Height : 400 pixels
      Display aspect ratio : 16:9
      Frame rate : 25.000 fps
      Color space : YUV
      Chroma subsampling : 4:2:0
      Bit depth : 8 bits
      Scan type : Progressive
      Compression mode : Lossy
      Bits/(Pixel*Frame) : 0.201
      Stream size : 456 MiB (91%)
      Writing library : XviD 65
   Audio #1
      ID : 1
      Format : MPEG Audio
      Format version : Version 1
      Format profile : Layer 3
      Mode : Joint stereo
      Mode extension : MS Stereo
      Codec ID : 55
      Codec ID/Hint : MP3
      Duration : 44mn 10s
      Bit rate mode : Constant
      Bit rate : 128 Kbps
      Channel(s) : 2 channels
      Sampling rate : 48.0 KHz
      Compression mode : Lossy
      Stream size : 40.4 MiB (8%)
      Alignment : Aligned on interleaves
      Interleave, duration : 40 ms (1.00 video frame)
      Interleave, preload duration : 504 ms
Семпл: http://multi-up.com/872469

picpicpicpicpicpicpicpicpicpicpicpicpicpicpic
Для увеличения картинки щелкните мышкой по превью
Сериал который был выложен и зарегистрирован более двух месяцев назад буду раздавать с 23.00ч до 06.00ч утра ( вина в этом немоя, а пользователей которые неподдерживают раздачу)

Этот торрент недоступен для скачивания без регистрации, однако доступен по публичной magnet-ссылке (источники с публичных трекеров). Перед использованием ссылки прочтите, пожалуйста Пользовательское соглашение, а также как можно дольше оставайтесь на раздаче! Для того, чтобы скачать сам торрент-файл (который видит больше источников), а также для того, чтобы поблагодарить релизера, вам необходимо зарегистрироваться. Если регистрироваться лень - вы можете также попробовать скачать релиз по нашим партнерским ссылкам ниже.

[underverse.su].t28237.torrent
Трекер: Зарегистрирован   [ 07.06.2013 15:16 ]  

Статус: проверено (by Печаль'ka at 07.06.2013 15:31)
Поблагодарили: 3 человека
Тип торрента: публичный - доступные источники с открытых трекеров: 
Размер: 3,91 GB (занимает 0,89 DVDR, для записи нужно 1 болванка DVDR/RW)
 
 


Последний раз редактировалось: nemos (03.10.2013 07:08), всего редактировалось 4 раз(а)

nemos Пол:Муж

05-Июн-2013 18:52

Торрент обновлен(8) cерия.

Яндекс.Метрика powered by Sphinx


В Н И М А Н И Е
Сайт не распространяет и не хранит электронные версии произведений, а лишь бесплатно и без коммерческой выгоды (не требуя взамен платы,
SMS и т.д.) предоставляет доступ к создаваемому пользователями каталогу ссылок на торрент-файлы, которые содержат только списки хеш-сумм.
Убедительная просьба с жалобами обращаться напрямую к пользователю, разместившему торрент файл.

Вверх