Loading...
Error

Маша и Медведь: Сладкая жизнь (s 33) (Олег Кузовков, Олег Ужинов, Денис Червяцов, Марина Нефедова) [2013 г., мультфильм, короткометражка, комедия, семейный, HDTVRip] HQ Underverse

Статистика раздачи
Размер:  105 MB   |    Зарегистрирован:  3 года 6 месяцев   |    Скачан:  147 раз

Полного источника не было: 1 день 15 часов

Сидов:  0  |  0 KB/s  ]   Личеров:  0  |  0 KB/s  ]

* - сиды/пиры с внешних источников

   
 
Автор Сообщение

Печаль'ka Пол:Жен

03-Июн-2013 11:59

Сладкая жизнь


Год выпуска: 2013
Жанр: мультфильм, короткометражка, комедия, семейный
Страна: Россия
Режиссер: Олег Кузовков, Олег Ужинов, Денис Червяцов, Марина Нефедова
Роли озвучивали: Алина Кукушкина, Борис Кутневич, Эдуард Назаров
Сюжет фильма:
Мультсериал про девочку Машу, которая никому не дает покоя, и в первую очередь — своему другу Медведю.
|
Качество видео: HDTVRip

Продолжительность: 00:06:56
Формат: avi
Видео: XviD, 720x400, 1901 kbps
Аудио: русский, оригинал, MP1 2.0, 192 kbps

Код:

General
Complete name                    : D:\Video\HQ\Masha.i.Medved.HDTVRip.XviD.AC3.Rus.O.HQ.Underverse.avi
Format                           : AVI
Format/Info                      : Audio Video Interleave
File size                        : 105 MiB
Duration                         : 6mn 56s
Overall bit rate                 : 2 103 Kbps
Writing application              : VirtualDubMod 1.5.10.2 (build 2540/release)
Writing library                  : VirtualDubMod build 2540/release

Video
ID                               : 0
Format                           : MPEG-4 Visual
Format profile                   : Streaming Video@L1
Format settings, BVOP            : Yes
Format settings, QPel            : No
Format settings, GMC             : No warppoints
Format settings, Matrix          : Custom
Muxing mode                      : Packed bitstream
Codec ID                         : XVID
Codec ID/Hint                    : XviD
Duration                         : 6mn 56s
Bit rate                         : 1 901 Kbps
Width                            : 720 pixels
Height                           : 400 pixels
Display aspect ratio             : 16/9
Frame rate                       : 25.000 fps
Resolution                       : 24 bits
Colorimetry                      : 4:2:0
Scan type                        : Progressive
Bits/(Pixel*Frame)               : 0.264
Stream size                      : 94.5 MiB (90%)
Writing library                  : XviD 64

Audio
ID                               : 1
Format                           : MPEG Audio
Format version                   : Version 1
Format profile                   : Layer 2
Codec ID                         : 50
Codec ID/Hint                    : MP1
Duration                         : 6mn 56s
Bit rate mode                    : Constant
Bit rate                         : 192 Kbps
Channel(s)                       : 2 channels
Sampling rate                    : 48.0 KHz
Resolution                       : 16 bits
Stream size                      : 9.54 MiB (9%)
Alignment                        : Aligned on interleaves
Interleave, duration             : 40 ms (1.00 video frame)
Interleave, preload duration     : 504 ms

Релиз группы:

picpicpicpic
Для увеличения картинки щелкните мышкой по превью

Этот торрент недоступен для скачивания без регистрации, однако доступен по публичной magnet-ссылке (источники с публичных трекеров). Перед использованием ссылки прочтите, пожалуйста Пользовательское соглашение, а также как можно дольше оставайтесь на раздаче! Для того, чтобы скачать сам торрент-файл (который видит больше источников), а также для того, чтобы поблагодарить релизера, вам необходимо зарегистрироваться. Если регистрироваться лень - вы можете также попробовать скачать релиз по нашим партнерским ссылкам ниже.

[underverse.su].t28122.torrent
Трекер: Зарегистрирован   [ 03.06.2013 11:59 ]  

Статус: проверено (by Печаль'ka at 03.06.2013 12:17)
Поблагодарили: 6 человек
Тип торрента: публичный - доступные источники с открытых трекеров: 
Размер: 105 MB (занимает 0,02 DVDR, для записи нужно 1 болванка DVDR/RW)
 
 
Похожие темы
Форум Тема Автор Торрент Отв. Посл. сооб.
Наше кино [DVDRip, Low-Res HDRip, и т.д.] Маша и Медведь (Владимир Фатьянов) [2013 г., мелодрама, SATRip] 90ytr90
5 | 0

0 | 1471

27

22.04.2013 14:55

Мультсериалы Маша и Медведь. (1-60 серий) + Бонус (Олег Кузовков, Олег Ужинов, Денис Червяцов ) [2009-2016 г., комедия, приключения, семейный, мультфильм, DVDRip] МУХА~
2 | 1

52 | 26762

1

04.07.2016 19:02

Мультсериалы Маша и медведь: К Вашим услугам! [60] (Олег Кузовков, Олег Ужинов, Денис Червяцов) [2016 г., мультсериал, компьютерная анимация, сказка, детский, семейный, WEB-DLRip] 90ytr90
180 | 2

0 | 225

4

18.11.2016 18:46

Мультсериалы Маша и медведь: К Вашим услугам! [60] (Олег Кузовков, Олег Ужинов, Денис Червяцов) [2016 г., мультсериал, компьютерная анимация, сказка, детский, семейный, WEBRip 720p] 90ytr90
432 | 5

0 | 183

8

18.11.2016 16:29

Мультсериалы Маша и медведь. Двое на одного [36] (Олег Кузовков, Олег Ужинов, Денис Червяцов...) [2013 г. мультфильм, короткометражка, комедия, семейный, WEB-DLRip] Станислав Карбанович
44 | 0

1 | 2431

103

08.10.2013 15:03

T Мультсериалы Маша и Медведь + Машины Сказки (Олег Ужинов, Денис Червяцов ) [2009-2013 г., Мультфильм, короткометражка, комедия, семейный , HDTVRip-AVC] Станислав Карбанович
1 | 0

0 | 1477

28

02.01.2014 13:02

* Мультсериалы маша и медведь (Олег Ужинов, Денис Червяцов, Марина Нефедова, Васико Бедошвили) [2009-2016 г., , HDRip] aepkugesi

0 | 200

29.10.2016 17:01

T Мультсериалы Маша и Медведь [01-58] (Олег Кузовков, Олег Ужинов, Денис Червяцов...) [2009-2015 г., мультфильм, короткометражка, комедия, семейный, BDRip-AVC, WEB-DLRip-AVC] 90ytr90
70 | 57

0 | 1397

4

16.01.2015 16:09

Мультсериалы Маша и медведь: Game Over [59] (Олег Кузовков, Олег Ужинов, Денис Червяцов) [2016 г., мультсериал, компьютерная анимация, сказка, детский, семейный, WEB-DLRip] 90ytr90
249 | 2

0 | 209

14

14.10.2016 20:20

Мультсериалы Маша и медведь [01-57] / Машкины страшилки [01-14] / Машины сказки [01-26] / Бонус: Караоке с Машей (Олег Кузовков, Олег Ужинов, Денис Червяцов...) [2009-2016 г., мультфильм, короткометражка,... 90ytr90
65 | 37

0 | 1476

4

16.02.2016 11:10

Saplex 

06-Сен-2013 00:57

классный мульт всем советую

Яндекс.Метрика powered by Sphinx


В Н И М А Н И Е
Сайт не распространяет и не хранит электронные версии произведений, а лишь бесплатно и без коммерческой выгоды (не требуя взамен платы,
SMS и т.д.) предоставляет доступ к создаваемому пользователями каталогу ссылок на торрент-файлы, которые содержат только списки хеш-сумм.
Убедительная просьба с жалобами обращаться напрямую к пользователю, разместившему торрент файл.

Вверх