Loading...
Error

Секретные территории - Колесницы Богов. [2013 г., документальный, TVRip]

Статистика раздачи
Размер:  615 MB   |    Зарегистрирован:  3 года 6 месяцев   |    Скачан:  13 раз

Полного источника не было: 6 дней

Сидов:  0  |  0 KB/s  ]   Личеров:  0  |  0 KB/s  ]

* - сиды/пиры с внешних источников

   
 
Автор Сообщение

матроскин Пол:Муж

02-Июн-2013 07:42

Секретные территории - Колесницы Богов.


Год выпуска: 2013
Жанр: документальный
Страна: Россия
Выпущено: Телеканал Рен-ТВ
Сюжет фильма:
Археологические находки - некогда нашу планету посещали космонавты. На древних рисунках видны дисковидные летательные аппараты, существа в скафандрах. Летательные аппараты поразительно похожи на изображения современных НЛО. Может быть Землю когда-то посещали те же существа, что и сегодня скрытно наблюдают за нами?
Качество видео: TVRip

Продолжительность: 00:47:47
Формат: avi
Видео: XviD, 704x400, 1661 kbps
Аудио: русский, оригинал, MP3 2.0, 128 kbps

Код:

General
Complete name                    : C:\Users\Security\Desktop\Секретные территории колесницы богов.avi
Format                           : AVI
Format/Info                      : Audio Video Interleave
File size                        : 615 MiB
Duration                         : 47mn 47s
Overall bit rate                 : 1 799 Kbps
Writing application              : VirtualDubMod 1.5.10.2 (build 2540/release)
Writing library                  : VirtualDub build 32842/release

Video
ID                               : 0
Format                           : MPEG-4 Visual
Format profile                   : Streaming Video@L1
Format settings, BVOP            : Yes
Format settings, QPel            : No
Format settings, GMC             : No warppoints
Format settings, Matrix          : Default (H.263)
Muxing mode                      : Packed bitstream
Codec ID                         : XVID
Codec ID/Hint                    : XviD
Duration                         : 47mn 47s
Bit rate                         : 1 661 Kbps
Width                            : 704 pixels
Height                           : 400 pixels
Display aspect ratio             : 16/9
Frame rate                       : 25.000 fps
Resolution                       : 24 bits
Colorimetry                      : 4:2:0
Scan type                        : Progressive
Bits/(Pixel*Frame)               : 0.236
Stream size                      : 568 MiB (92%)
Writing library                  : XviD 64

Audio
ID                               : 1
Format                           : MPEG Audio
Format version                   : Version 1
Format profile                   : Layer 3
Codec ID                         : 55
Codec ID/Hint                    : MP3
Duration                         : 47mn 47s
Bit rate mode                    : Constant
Bit rate                         : 128 Kbps
Channel(s)                       : 2 channels
Sampling rate                    : 48.0 KHz
Resolution                       : 16 bits
Stream size                      : 43.7 MiB (7%)
Alignment                        : Aligned on interleaves
Interleave, duration             : 40 ms (1.00 video frame)
Interleave, preload duration     : 504 ms
Writing library                  : LAME3.90.3ЄЄЄЄЄЄЄЄЄЄ

picpicpicpicpicpic
Для увеличения картинки щелкните мышкой по превью

Этот торрент недоступен для скачивания без регистрации, однако доступен по публичной magnet-ссылке (источники с публичных трекеров). Перед использованием ссылки прочтите, пожалуйста Пользовательское соглашение, а также как можно дольше оставайтесь на раздаче! Для того, чтобы скачать сам торрент-файл (который видит больше источников), а также для того, чтобы поблагодарить релизера, вам необходимо зарегистрироваться. Если регистрироваться лень - вы можете также попробовать скачать релиз по нашим партнерским ссылкам ниже.

[underverse.su].t28076.torrent
Трекер: Зарегистрирован   [ 02.06.2013 07:42 ]  

Статус: проверено (by матроскин at 02.06.2013 07:43)
Поблагодарили: 1 человек
Тип торрента: публичный - доступные источники с открытых трекеров: 
Размер: 615 MB (занимает 0,14 DVDR, для записи нужно 1 болванка DVDR/RW)
 
 
Похожие темы
Форум Тема Автор Торрент Отв. Посл. сооб.
Зарубежные сериалы Секретные материалы / The X-Files [Сезон: 1-9 / Серии: 1-202 (202)] (Крис Картер / Chris Carter) [1993-2002, Мистика, фантастика, детектив, триллер, DVDRip] MVO (Рен-ТВ) + MVO (ОРТ) + AVO (Юрий Живов) 8ad_R060d
76 | 52

2 | 1101

13

09.08.2014 07:45

Научно-популярные фильмы Секретные эксперименты / Confidential experiments (5 фильмов) [2009 г., документальный, TVRip] oartemka178
0 | 0

1 | 1603

37

22.01.2011 07:02

Научно-популярные фильмы Секретные территории - Бледный огонь Вселенной. [2013 г., документальный, TVRip] матроскин
0 | 0

1 | 790

16

05.06.2013 17:23

Научно-популярные фильмы Секретные территории. Разум. Запретные знания [2013 г., документальный, TVRip] матроскин
0 | 0

2 | 1655

17

07.09.2013 13:59

Релизы Секретные тропы: Ледяное сердце. Коллекционное издание / Secret Trails: Frozen Heart Collector's Edition [2013 г., Квест Поиск предметов] RUS [P] Станислав Карбанович
7 | 0

0 | 412

7

04.04.2014 15:58

Зарубежные сериалы [BD / Remux / BDRip / WEB-DL / HDTV 1080/720р] Секретные материалы / The X-Files (Сезон 10, серии 1-6 из 6) (Крис Картер, Глен Морган, Дарин Морган, Джеймс Вонг) [2015 г., Фантастика, триллер, драма, детектив, WEB-DL 1080p] MVO (LostFilm) +... srab
0 | 0

2 | 1925

18

25.02.2016 06:30

Мультфильмы [HDDVDRip / BDRip / WEB-DL / HDTV 1080/720р] Секретные материалы Мстителей: Черная Вдова и Каратель / Avengers Confidential: Black Widow & Punisher (Кенити Симидзу / Kenichi Shimizu) [2014 г., мультфильм, фантастика, BDRip 720p] DVO... 90ytr90
1 | 0

0 | 513

10

18.06.2014 14:39

матроскин Пол:Муж

02-Июн-2013 07:44


Яндекс.Метрика powered by Sphinx


В Н И М А Н И Е
Сайт не распространяет и не хранит электронные версии произведений, а лишь бесплатно и без коммерческой выгоды (не требуя взамен платы,
SMS и т.д.) предоставляет доступ к создаваемому пользователями каталогу ссылок на торрент-файлы, которые содержат только списки хеш-сумм.
Убедительная просьба с жалобами обращаться напрямую к пользователю, разместившему торрент файл.

Вверх