Loading...
Error

Семь психопатов / Seven Psychopaths (Мартин МакДона) [2012 г., Комедия, HDTVRip] Dub

Статистика раздачи
Размер:  744 MB   |    Зарегистрирован:  3 года 6 месяцев   |    Скачан:  16 раз

Полного источника не было: 1 год 7 месяцев

Сидов:  0  |  0 KB/s  ]   Личеров:  0  |  0 KB/s  ]

* - сиды/пиры с внешних источников

   
 
Автор Сообщение

xerokc Пол:Муж

01-Июн-2013 23:31

7 психопатов / Seven Psychopaths


Год выпуска: 2012
Жанр: Комедия
Страна: Великобритания
Режиссер: Мартин МакДона
В ролях: Колин Фаррелл Сэм Рокуэлл Кристофер Уокен Вуди Харрельсон Том Уэйтс Эбби Корниш Ольга Куриленко Желько Иванек Майкл Питт Майкл Стулбарг
Сюжет фильма:
Непутевый писатель потерял вдохновение и никак не может справиться с новым сценарием. Волей случая он оказывается втянутым в похищение собаки, затеянное его эксцентричными дружками. Выясняется, что украденное животное — любимый пёс главного местного гангстера, которому ничего не стоит в два счета вычислить и уничтожить оболтусов.


Качество видео: HDTVRip

Продолжительность: 01:50:24
Формат: AVI
Видео: XviD, 688x288, ~805 kbps avg
Аудио: русский, дублированный, MP3 2.0, ~128.00 kbps avg
Субтитры: тип: вшитые отключаемые, русский, формат: SSA

Код:

Общее
Полное имя : D:\Торренты на раздачу\Семь психопатов\Seven_Psychopaths.avi
Формат : AVI
Формат/Информация : Audio Video Interleave
Размер файла : 744 Мбайт
Продолжительность : 1 ч. 50 м.
Общий поток : 942 Кбит/сек
Программа кодирования : VirtualDubMod 1.5.10.3 | www.virtualdub-fr.org || (build 2550/release)
Библиотека кодирования : VirtualDubMod build 2550/release

Видео
Идентификатор : 0
Формат : MPEG-4 Visual
Профиль формата : Advanced Simple@L5
Параметр BVOP формата : 1
Параметр QPel формата : Нет
Параметр GMC формата : Без точки перехода
Параметр матрицы формата : Выборочная
Идентификатор кодека : XVID
Идентификатор кодека/Подсказка : XviD
Продолжительность : 1 ч. 50 м.
Битрейт : 805 Кбит/сек
Ширина : 688 пикселей
Высота : 288 пикселей
Соотношение сторон : 2,40:1
Частота кадров : 23,976 кадра/сек
Цветовое пространство : YUV
Субдискретизация насыщенности : 4:2:0
Битовая глубина : 8 бит
Тип развёртки : Прогрессивная
Метод сжатия : С потерями
Бит/(Пиксели*Кадры) : 0.169
Размер потока : 636 Мбайт (85%)
Библиотека кодирования : XviD 65

Аудио
Идентификатор : 1
Формат : MPEG Audio
Версия формата : Version 1
Профиль формата : Layer 3
Идентификатор кодека : 55
Идентификатор кодека/Подсказка : MP3
Продолжительность : 1 ч. 50 м.
Вид битрейта : Постоянный
Битрейт : 128 Кбит/сек
Каналы : 2 канала
Частота : 48,0 КГц
Метод сжатия : С потерями
Размер потока : 101 Мбайт (14%)
Выравнивание : Соединение по промежуткам
Продолжительность промежутка : 42 мс. (1,00 видеокадр)
Время предзагрузки промежутка : 504 мс.
Библиотека кодирования : LAME3.99r
Настройки программы : -m s -V 4 -q 2 -lowpass 17 -b 128
Релиз группы:

picpicpic
Для увеличения картинки щелкните мышкой по превью

Этот торрент недоступен для скачивания без регистрации, однако доступен по публичной magnet-ссылке (источники с публичных трекеров). Перед использованием ссылки прочтите, пожалуйста Пользовательское соглашение, а также как можно дольше оставайтесь на раздаче! Для того, чтобы скачать сам торрент-файл (который видит больше источников), а также для того, чтобы поблагодарить релизера, вам необходимо зарегистрироваться. Если регистрироваться лень - вы можете также попробовать скачать релиз по нашим партнерским ссылкам ниже.

[underverse.su].t28074.torrent
Трекер: Зарегистрирован   [ 01.06.2013 23:31 ]  

Статус: проверено (by Чертёнок at 02.06.2013 08:35)
Поблагодарили: 1 человек
Тип торрента: публичный - доступные источники с открытых трекеров: 
Размер: 744 MB (занимает 0,17 DVDR, для записи нужно 1 болванка DVDR/RW)
 
 
Похожие темы
Форум Тема Автор Торрент Отв. Посл. сооб.
Зарубежное кино [DVDRip, Low-Res HDRip, и т.д.] Семь психопатов / Seven Psychopaths (Мартин МакДона) [2012 г., комедия, криминал, BDRip] Dub + Eng 90ytr90
4 | 0

1 | 1723

68

07.02.2013 12:51

Зарубежное кино [DVDRip, Low-Res HDRip, и т.д.] Семь психопатов / Seven Psychopaths (Мартин Макдона) [2012 г., триллер, комедия, криминал, BDRip] Dub garry
26 | 0

0 | 1326

16

27.10.2013 08:21

Зарубежное кино [DVDRip, Low-Res HDRip, и т.д.] Семь психопатов / Seven Psychopaths (Мартин МакДона) [2012 г., комедия, криминал, HDRip] AVO garry
13 | 0

0 | 337

6

27.10.2013 08:35

02-Июн-2013 05:32

Топик был перенесен из форума Зарубежное кино HD DVD & Blu-Ray Rip's в форум Зарубежное кино [DVDRip, Low-Res HDRip, и т.д.]


TERRAN
 

TERRAN Пол:Муж

02-Июн-2013 05:33

Общие правила и рекомендации оформления и раздачи релизов «Видео»

garry Пол:Муж

27-Окт-2013 08:07

Цитата:

HDTVRip] Dub

Цитата:

Релиз группы: HDCLUB

Цитата:

HDRip___[scarabey.org].avi

Цитата:

√ проверено (by Чертёнок at 02.06.2013 11:35)
%)

Яндекс.Метрика powered by Sphinx


В Н И М А Н И Е
Сайт не распространяет и не хранит электронные версии произведений, а лишь бесплатно и без коммерческой выгоды (не требуя взамен платы,
SMS и т.д.) предоставляет доступ к создаваемому пользователями каталогу ссылок на торрент-файлы, которые содержат только списки хеш-сумм.
Убедительная просьба с жалобами обращаться напрямую к пользователю, разместившему торрент файл.

Вверх