Loading...
Error

Филадельфия / Philadelphia (Джонатан Демме / Jonathan Demme) [1993 г., драма, BDRip] Dub

Статистика раздачи
Размер:  1,46 GB   |    Зарегистрирован:  3 года 6 месяцев   |    Скачан:  6 раз

Полного источника не было: 3 года 1 месяц

Сидов:  0  |  0 KB/s  ]   Личеров:  0  |  0 KB/s  ]

* - сиды/пиры с внешних источников

   
 
Автор Сообщение

RG NewCinema 

01-Июн-2013 08:04

Филадельфия / Philadelphia


Страна: США / Clinica Estetico Ltd., TriStar Pictures
Жанр: драма
Год выпуска: 1993
Продолжительность: 02:05:30
Перевод: Профессиональный (дублированный)
Оригинальная аудиодорожка: нет
Субтитры: нет

Режиссер: Джонатан Демме / Jonathan Demme

В ролях: Том Хэнкс, Дензел Вашингтон, Антонио Бандерас, Джейсон Робардс, Мэри Стинберген, Джоэнн Вудворд, Чарльз Нэпьер, Роберт Риджли, Брэдли Уитфорд, Рон Вотер...

Роли дублировали: Валерий Сторожик, Александр Новиков, Андрей Гриневич, Александр Белявский, Дальвин Щербаков...

Описание: Два главных героя не похожи как белое и черное — их разделяет цвет кожи, общественное положение, сексуальная ориентация, смертельная болезнь. Но каждый — служит закону и готов бороться против любой несправедливости. Том Хэнкс и Дэнзел Вашингтон в драматической истории смертельно больного, но не отчаявшегося человека. Человека, который верил в справедливость.
Сэмпл
Исходник: Blu-ray 1080p
Качество: BDRip
Формат: AVI

Видео: 720x384 (1.85:1), 23.976 fps, XViD ~ 1461 kbps avg, 0.220 bit/pixel
Аудио: 48 kHz, АС3 2 ch, 192 kbps, русский
Общее
Полное имя : Filadelfiya.1993.D.BDRip.1.46GB_[Youtracker]_by_avproh.avi
Формат : AVI
Формат/Информация : Audio Video Interleave
Размер файла : 1,46 Гбайт
Продолжительность : 2 ч. 5 м.
Общий поток : 1662 Кбит/сек
Программа кодирования : VirtualDubModRus 1.5.10.2 (build 2542/release)
Библиотека кодирования : VirtualDubMod build 2542/release

Видео
Идентификатор : 0
Формат : MPEG-4 Visual
Профиль формата : Advanced Simple@L5
Параметр BVOP формата : 1
Параметр QPel формата : Нет
Параметр GMC формата : Без точки перехода
Параметр матрицы формата : Выборочная
Идентификатор кодека : XVID
Идентификатор кодека/Подсказка : XviD
Продолжительность : 2 ч. 5 м.
Битрейт : 1461 Кбит/сек
Ширина : 720 пикселей
Высота : 384 пикселя
Соотношение сторон : 1,85:1
Частота кадров : 23,976 кадра/сек
Цветовое пространство : YUV
Субдискретизация насыщенности : 4:2:0
Битовая глубина : 8 бит
Тип развёртки : Прогрессивная
Метод сжатия : С потерями
Бит/(Пиксели*Кадры) : 0.220
Размер потока : 1,28 Гбайт (88%)
Библиотека кодирования : XviD 65

Аудио
Идентификатор : 1
Формат : AC-3
Формат/Информация : Audio Coding 3
Профиль формата : Dolby Digital
Расширение режима : CM (complete main)
Параметр Endianness формата : Big
Идентификатор кодека : 2000
Продолжительность : 2 ч. 5 м.
Вид битрейта : Постоянный
Битрейт : 192 Кбит/сек
Каналы : 2 канала
Расположение каналов : Front: L R
Частота : 48,0 КГц
Битовая глубина : 16 бит
Метод сжатия : С потерями
Размер потока : 172 Мбайт (12%)
Выравнивание : Разделение по промежуткам
Продолжительность промежутка : 42 мс. (1,00 видеокадр)
Время предзагрузки промежутка : 500 мс.
pic pic pic
Для увеличения картинки щелкните мышкой по превью

Этот торрент недоступен для скачивания без регистрации, однако доступен по публичной magnet-ссылке (источники с публичных трекеров). Перед использованием ссылки прочтите, пожалуйста Пользовательское соглашение, а также как можно дольше оставайтесь на раздаче! Для того, чтобы скачать сам торрент-файл (который видит больше источников), а также для того, чтобы поблагодарить релизера, вам необходимо зарегистрироваться. Если регистрироваться лень - вы можете также попробовать скачать релиз по нашим партнерским ссылкам ниже.

[underverse.su].t28028.torrent
Трекер: Зарегистрирован   [ 01.06.2013 08:04 ]  

Статус: проверено (by Паукан at 01.06.2013 09:00)
Поблагодарили: 1 человек
Тип торрента: публичный - доступные источники с открытых трекеров: 
Размер: 1,46 GB (занимает 1/3 DVDR, для записи нужно 1 болванка DVDR/RW)
 
 
Похожие темы
Форум Тема Автор Торрент Отв. Посл. сооб.
Зарубежное кино [DVDRip, Low-Res HDRip, и т.д.] Филадельфийский эксперимент / The Philadelphia Experiment (Пол Зиллер) [2012 г., фантастика, триллер, детектив, HDRip] VO (О. Иванов) 90ytr90
1 | 0

0 | 1584

91

26.12.2012 11:58

Зарубежное кино [DVDRip, Low-Res HDRip, и т.д.] Филадельфийский эксперимент / The Philadelphia Experiment (Пол Зиллер) [2012, фантастика, триллер, детектив, HDRip] VO Garnett
0 | 0

0 | 1513

70

28.12.2012 18:59

Зарубежное кино [DVD / HDDVD / BD / Remux] Филадельфийский эксперимент / The Philadelphia Experiment (Стюарт Рэффил) [1984 г., Фантастика, Триллер, Драма, Blu-Ray Remux 1080p] 2-MVO (RUS, R5, Варус-Видео) + Dub (RUS, Советский дубляж) + AVO... Ведьмочка
0 | 0

0 | 607

3

11.08.2014 00:04

Зарубежное кино [HDDVDRip / BDRip / WEB-DL / HDTV 1080/720р] Филадельфийский эксперимент / The Philadelphia Experiment (Стюарт Рэффил) [1984 г., Фантастика, Триллер, Драма, BDRip 720p] 2-MVO (RUS, R5, Варус-Видео) + Dub (RUS, Советский дубляж) + AVO (RUS, А.... Ведьмочка
0 | 0

0 | 595

10

11.08.2014 00:15


Яндекс.Метрика powered by Sphinx


В Н И М А Н И Е
Сайт не распространяет и не хранит электронные версии произведений, а лишь бесплатно и без коммерческой выгоды (не требуя взамен платы,
SMS и т.д.) предоставляет доступ к создаваемому пользователями каталогу ссылок на торрент-файлы, которые содержат только списки хеш-сумм.
Убедительная просьба с жалобами обращаться напрямую к пользователю, разместившему торрент файл.

Вверх