Loading...
Error

Диномама 3D / Dino Time (Юн-сок Чхве Джон Кафка) [2012 г., мультфильм, комедия, приключения, семейный,, BDRip 1080p] Dub Анаглиф (Дюбуа)

Статистика раздачи
Размер:  5,05 GB   |    Зарегистрирован:  5 лет 3 месяца   |    Скачан:  3 раза

Полного источника не было: 4 года 11 месяцев

Сидов:  0  |  0 KB/s  ]   Личеров:  0  |  0 KB/s  ]

* - сиды/пиры с внешних источников

   
 
Автор Сообщение

slaventi-69 Пол:Муж

30-Май-2013 18:02

Диномама 3D / Dino Time


Год выпуска: 2012
Жанр: мультфильм, комедия, приключения, семейный,
Страна: США
Режиссер: Юн-сок Чхве Джон Кафка
Роли озвучивали: Джейн Линч, Роб Шнайдер, Тара Стронг, Памела Адлон, Стивен Болдуин, Мелани Гриффит, Уильям Болдуин, Юрий Ловенталь, Джессика Ди Чикко, Мелани Абрамофф,
Роли дублировали: Владимир Рыбальченко,
Сюжет фильма:
Эрни, его сестра Джулия и лучший друг Макс — неразлучная троица. Однажды, друзья без спроса залезли в странное устройство, которое сконструировал папа Макса, и случайно нажали кнопку запуска. Устройство оказалось машиной времени, и ребята очутились в Юрском периоде, прямо в гнезде Тираннозавра. Но вот радость: самка гигантского ящера приняла ребят за своих детенышей. Но не все, конечно, так безоблачно в мире хищников. Кое-кто мечтает полакомиться непрошеными гостями! Друзьям нужно немедленно уносить ноги и подумать о возвращении. Но как это сделать, если важная деталь машины исчезла?

Доп. информация: Формат 3D: Анаглиф (Дюбуа)
Качество видео: BDRip 1080p

Продолжительность: 01:25:25
Формат: mkv
Видео: x264, 1920x1072, 7851 kbps
Аудио: русский, дублированный [лицензия], AC3 5.1, 448 kbps

Код:

General
Complete name                    : D:\DVD\Dino.Time.3D.(Anaglyph_Dubois).mkv
Format                           : Matroska
File size                        : 5.05 GiB
Duration                         : 1h 25mn
Overall bit rate                 : 8 468 Kbps
Writing application              : HandBrake 0.9.9
Writing library                  : libmkv 0.6.5

Video
ID                               : 1
Format                           : AVC
Format/Info                      : Advanced Video Codec
Format profile                   : Main@L4.0
Format settings, CABAC           : No
Format settings, ReFrames        : 4 frames
Muxing mode                      : Container profile=Unknown@4.0
Codec ID                         : V_MPEG4/ISO/AVC
Duration                         : 1h 25mn
Bit rate                         : 7 851 Kbps
Nominal bit rate                 : 8 002 Kbps
Width                            : 1 920 pixels
Height                           : 1 072 pixels
Display aspect ratio             : 16/9
Frame rate                       : 23.976 fps
Resolution                       : 24 bits
Colorimetry                      : 4:2:0
Scan type                        : Progressive
Bits/(Pixel*Frame)               : 0.159
Stream size                      : 4.68 GiB (93%)
Writing library                  : x264 core 130 r2273 b3065e6
Encoding settings                : cabac=0 / ref=1 / deblock=0:1:1 / analyse=0:0 / me=dia / subme=0 / psy=1 / psy_rd=0.40:0.00 / mixed_ref=0 / me_range=16 / chroma_me=1 / trellis=0 / 8x8dct=0 / cqm=0 / deadzone=21,11 / fast_pskip=1 / chroma_qp_offset=0 / threads=1 / lookahead_threads=1 / sliced_threads=0 / nr=0 / decimate=1 / interlaced=0 / bluray_compat=0 / constrained_intra=0 / bframes=2 / b_pyramid=2 / b_adapt=0 / b_bias=0 / direct=1 / weightb=0 / open_gop=0 / weightp=0 / keyint=240 / keyint_min=24 / scenecut=0 / intra_refresh=0 / rc=abr / mbtree=0 / bitrate=8002 / ratetol=1.0 / qcomp=0.60 / qpmin=0 / qpmax=69 / qpstep=4 / ip_ratio=1.40 / pb_ratio=1.30 / aq=0

Audio
ID                               : 2
Format                           : AC-3
Format/Info                      : Audio Coding 3
Codec ID                         : A_AC3
Duration                         : 1h 25mn
Bit rate mode                    : Constant
Bit rate                         : 448 Kbps
Channel(s)                       : 6 channels
Channel positions                : Front: L C R, Surround: L R, LFE
Sampling rate                    : 48.0 KHz
Stream size                      : 274 MiB (5%)
Language                         : Russian

Menu
00:00:00.000                     : Chapter 1
00:11:31.190                     : Chapter 2
00:24:23.545                     : Chapter 3
00:32:32.325                     : Chapter 4
00:44:41.345                     : Chapter 5
00:54:39.234                     : Chapter 6
01:10:21.217                     : Chapter 7
01:18:42.926                     : Chapter 8

picpicpicpic pic pic
Для увеличения картинки щелкните мышкой по превью

Этот торрент недоступен для скачивания без регистрации, однако доступен по публичной magnet-ссылке (источники с публичных трекеров). Перед использованием ссылки прочтите, пожалуйста Пользовательское соглашение, а также как можно дольше оставайтесь на раздаче! Для того, чтобы скачать сам торрент-файл (который видит больше источников), а также для того, чтобы поблагодарить релизера, вам необходимо зарегистрироваться. Если регистрироваться лень - вы можете также попробовать скачать релиз по нашим партнерским ссылкам ниже. Кроме того, зарегистрированным пользователям не показывается всплывающая реклама при скачивании.

[underverse.su].t27990.torrent
Трекер: Зарегистрирован   [ 30.05.2013 18:02 ]  

Статус: проверено (by Печаль'ka at 30.05.2013 18:27)
Поблагодарили: пока никто не поблагодарил...
Тип торрента: публичный - доступные источники с открытых трекеров: 
Размер: 5,05 GB (занимает 1,15 DVDR, для записи нужно 2 болванки DVDR/RW)
 
 

31-Янв-2018 19:01

Топик был перенесен из форума Мультфильмы [HDDVDRip / BDRip / WEB-DL / HDTV 1080/720р] в форум Архив (мультфильмы высокого качества)


[cron robot]
 

Яндекс.Метрика powered by Sphinx


В Н И М А Н И Е
Сайт не распространяет и не хранит электронные версии произведений, а лишь бесплатно и без коммерческой выгоды (не требуя взамен платы,
SMS и т.д.) предоставляет доступ к создаваемому пользователями каталогу ссылок на торрент-файлы, которые содержат только списки хеш-сумм.
Убедительная просьба с жалобами обращаться напрямую к пользователю, разместившему торрент файл.

Вверх