Loading...
Error

Сёмин. Возмездие / Серии: 1-16 [16] (Сергей Лялин) [2013 г., детектив, криминальный, SatRip]

Статистика раздачи
Размер:  8,59 GB   |    Зарегистрирован:  3 года 6 месяцев   |    Скачан:  19 раз

Полного источника не было: 1 год 2 месяца

Сидов:  0  |  0 KB/s  ]   Личеров:  0  |  0 KB/s  ]

* - сиды/пиры с внешних источников

   
 
Автор Сообщение

nemos Пол:Муж

29-Май-2013 15:06

Сёмин. Возмездие


Год выпуска: 2013
Жанр: детектив, криминальный
Страна: Россия
Режиссер: Сергей Лялин
В ролях: Леонид Каневский, Владимир Симонов, Юрий Беляев, Владислав Резник, Мария Жиганова, Сергей Жарков, Константин Желдин, Александр Яцко, Андрей Тартаков, Егор Баринов
Сюжет фильма:
Легенда сыска, полковник Семин возвращается на НТВ! Но если раньше он охотился на бандитов, то на этот раз мишенью станет он сам...
Созданный Семиным отдел прекрасно работает, у него отличная команда, высокие результаты. Лишь одно дело не дает ему покоя. Вот уже много лет он пытается арестовать криминального авторитета по кличке Купец. Основным бизнесом Купца является продажа наркотиков. Операции Семина проваливаются одна за другой, и Купцу каждый раз удается скрыться. Вместе со своим приемным сыном Антоном Семин решается на новую масштабную операцию по захвату Купца. Он еще не подозревает, каким серьезным испытанием станет это дело.
В ходе расследования Антон погибает, Семин узнает, что в его собственном отделе завелся "крот", и сам оказывается под следствием по сфабрикованному обвинению. Став главным подозреваемым в убийстве собственного сына, оказавшись в эпицентре бандитских разборок и вне закона, он понимает: терять больше нечего. Сумеет ли легендарный сыщик доказать свою невиновность, добиться справедливого наказания для преступников и отомстить за сына?
Качество видео: SatRip

Продолжительность: 00:44:10 серия
Формат: AVI
Видео: XviD, 720x416, 1485 kbps
Аудио: русский, MP3 2.0, 128 kbps

Код:

F:\С underverse-3 Фильмы\Семин. Возмездие\Semin.Vosmesdie.16.avi
   General
      Complete name : F:\С underverse-3 Фильмы\Семин. Возмездие\Semin.Vosmesdie.16.avi
      Format : AVI
      Format/Info : Audio Video Interleave
      File size : 544 MiB
      Duration : 44mn 10s
      Overall bit rate : 1 723 Kbps
   Video #0
      ID : 0
      Format : MPEG-4 Visual
      Format profile : Advanced Simple@L5
      Format settings, BVOP : 2
      Format settings, QPel : No
      Format settings, GMC : No warppoints
      Format settings, Matrix : Default (MPEG)
      Codec ID : XVID
      Codec ID/Hint : XviD
      Duration : 44mn 10s
      Bit rate : 1 485 Kbps
      Width : 720 pixels
      Height : 416 pixels
      Display aspect ratio : 1.731
      Frame rate : 25.000 fps
      Color space : YUV
      Chroma subsampling : 4:2:0
      Bit depth : 8 bits
      Scan type : Progressive
      Compression mode : Lossy
      Bits/(Pixel*Frame) : 0.198
      Stream size : 469 MiB (86%)
      Writing library : XviD 64
   Audio #1
      ID : 1
      Format : MPEG Audio
      Format version : Version 1
      Format profile : Layer 3
      Mode : Joint stereo
      Mode extension : MS Stereo
      Codec ID : 55
      Codec ID/Hint : MP3
      Duration : 44mn 10s
      Bit rate mode : Constant
      Bit rate : 128 Kbps
      Channel(s) : 2 channels
      Sampling rate : 48.0 KHz
      Compression mode : Lossy
      Stream size : 40.4 MiB (7%)
      Alignment : Aligned on interleaves
      Interleave, duration : 24 ms (0.60 video frame)
Семпл: http://multi-up.com/870536

Релиз группы:

picpicpicpicpicpicpicpicpicpicpicpicpicpicpicpicpic
Для увеличения картинки щелкните мышкой по превью
Сериал который был выложен и зарегистрирован более двух месяцев назад буду раздавать с 23.00ч до 06.00ч утра ( вина в этом немоя, а пользователей которые неподдерживают раздачу)

Этот торрент недоступен для скачивания без регистрации, однако доступен по публичной magnet-ссылке (источники с публичных трекеров). Перед использованием ссылки прочтите, пожалуйста Пользовательское соглашение, а также как можно дольше оставайтесь на раздаче! Для того, чтобы скачать сам торрент-файл (который видит больше источников), а также для того, чтобы поблагодарить релизера, вам необходимо зарегистрироваться. Если регистрироваться лень - вы можете также попробовать скачать релиз по нашим партнерским ссылкам ниже.

[underverse.su].t28027.torrent
Трекер: Зарегистрирован   [ 01.06.2013 07:03 ]  

Статус: проверено (by Чертёнок at 01.06.2013 10:11)
Поблагодарили: 1 человек
Тип торрента: публичный - доступные источники с открытых трекеров: 
Размер: 8,59 GB (занимает 1,96 DVDR, для записи нужно 2 болванки DVDR/RW)
 
 


Последний раз редактировалось: nemos (06.11.2014 11:22), всего редактировалось 7 раз(а)

nemos Пол:Муж

30-Май-2013 07:13

Торр файл обновлен (16)

Яндекс.Метрика powered by Sphinx


В Н И М А Н И Е
Сайт не распространяет и не хранит электронные версии произведений, а лишь бесплатно и без коммерческой выгоды (не требуя взамен платы,
SMS и т.д.) предоставляет доступ к создаваемому пользователями каталогу ссылок на торрент-файлы, которые содержат только списки хеш-сумм.
Убедительная просьба с жалобами обращаться напрямую к пользователю, разместившему торрент файл.

Вверх