Loading...
Error

Поздние цветы / Late Bloomers (Жюли Гаврас / Julie Gavras) [2011, Франция, Бельгия, Великобритания, Драма, BDRip] MVO

Статистика раздачи
Размер:  745 MB   |    Зарегистрирован:  3 года 6 месяцев   |    Скачан:  4 раза

Полного источника не было: 2 года 4 месяца

Сидов:  0  |  0 KB/s  ]   Личеров:  0  |  0 KB/s  ]

* - сиды/пиры с внешних источников

   
 
Автор Сообщение

Garnett Пол:Муж

29-Май-2013 13:26

Поздние цветы / Late Bloomers

Страна: Франция, Бельгия, Великобритания
Жанр: Драма
Год выпуска: 2011
Продолжительность: 01:29:00
Перевод: Профессиональный (многоголосый закадровый)
Cубтитры: отсутствуют
Режиссер: Жюли Гаврас / Julie Gavras
В ролях: Уильям Хёрт, Изабелла Росселлини, Дорин Мэнтл, Кейт Эшфилд, Эйдан МакАрдл, Арта Доброши, Люк Тредэвэй, Лесли Филлипс, Хьюго Спир, Джоанна Ламли
Описание: История супругов, которые после развода решают снова быть вместе, несмотря на различие характеров. К такому решению они приходят в шестьдесят с лишним лет, у каждого из них есть дети и внуки, однако герои совсем не ощущают своего возраста, а когда, наконец, осознают его, то очень этому удивляются.
Sample | IMDB | КиноПоиск
Тип релиза: BDRip
Формат видео: AVI
Видео: 640x336 (1.90:1), 23.976 fps, XviD build 50, 1032 kbps avg, 0.20 bit/pixel
Аудио: 48 kHz, MPEG Layer 3, 2 ch, 128.00 kbps avg [Russian_MVO]


General
Complete name : E:\Мои раздачи\Late Bloomers_BDRip_745_RG_All_Films.avi
Format : AVI
Format/Info : Audio Video Interleave
File size : 745 MiB
Duration : 1h 29mn
Overall bit rate : 1 170 Kbps
Writing application : VirtualDubMod 1.5.10.3
Writing library : VirtualDubMod build 2550/release

Video
ID : 0
Format : MPEG-4 Visual
Format profile : Advanced Simple@L5
Format settings, BVOP : Yes
Format settings, QPel : No
Format settings, GMC : No warppoints
Format settings, Matrix : Custom
Codec ID : XVID
Codec ID/Hint : XviD
Duration : 1h 29mn
Bit rate : 1 033 Kbps
Width : 640 pixels
Height : 336 pixels
Display aspect ratio : 1.905
Frame rate : 23.976 fps
Color space : YUV
Chroma subsampling : 4:2:0
Bit depth : 8 bits
Scan type : Progressive
Compression mode : Lossy
Bits/(Pixel*Frame) : 0.200
Stream size : 657 MiB (88%)
Writing library : XviD 1.2.1 (UTC 2008-12-04)

Audio
ID : 1
Format : MPEG Audio
Format version : Version 1
Format profile : Layer 3
Codec ID : 55
Codec ID/Hint : MP3
Duration : 1h 29mn
Bit rate mode : Constant
Bit rate : 128 Kbps
Channel(s) : 2 channels
Sampling rate : 48.0 KHz
Compression mode : Lossy
Stream size : 81.5 MiB (11%)
Alignment : Aligned on interleaves
Interleave, duration : 42 ms (1.00 video frame)
Interleave, preload duration : 504 ms
Writing library : LAME3.98r
Encoding settings : -m s -V 4 -q 2 -lowpass 17 -b 128


picpicpic

Этот торрент недоступен для скачивания без регистрации, однако доступен по публичной magnet-ссылке (источники с публичных трекеров). Перед использованием ссылки прочтите, пожалуйста Пользовательское соглашение, а также как можно дольше оставайтесь на раздаче! Для того, чтобы скачать сам торрент-файл (который видит больше источников), а также для того, чтобы поблагодарить релизера, вам необходимо зарегистрироваться. Если регистрироваться лень - вы можете также попробовать скачать релиз по нашим партнерским ссылкам ниже.

[underverse.su].t27946.torrent
Трекер: Зарегистрирован   [ 29.05.2013 13:26 ]  

Статус: проверено (by Печаль'ka at 29.05.2013 14:29)
Поблагодарили: пока никто не поблагодарил...
Тип торрента: публичный - доступные источники с открытых трекеров: 
Размер: 745 MB (занимает 0,17 DVDR, для записи нужно 1 болванка DVDR/RW)
 
 
Похожие темы
Форум Тема Автор Торрент Отв. Посл. сооб.
Зарубежное кино [DVDRip, Low-Res HDRip, и т.д.] Поздние цветы / Late Bloomers (Жюли Гаврас) [2011 г., драма, HDRip] MVO (НТВ+) 90ytr90
0 | 1

0 | 905

12

18.04.2013 14:21


Яндекс.Метрика powered by Sphinx


В Н И М А Н И Е
Сайт не распространяет и не хранит электронные версии произведений, а лишь бесплатно и без коммерческой выгоды (не требуя взамен платы,
SMS и т.д.) предоставляет доступ к создаваемому пользователями каталогу ссылок на торрент-файлы, которые содержат только списки хеш-сумм.
Убедительная просьба с жалобами обращаться напрямую к пользователю, разместившему торрент файл.

Вверх