Loading...
Error

Лучшие планы / Best Laid Plans (Майк Баркер) [1999 г., драма, триллер, криминал, BDRip] MVO + DVO + Original

Статистика раздачи
Размер:  1,63 GB   |    Зарегистрирован:  3 года 6 месяцев   |    Скачан:  5 раз

Полного источника не было: 3 года 5 месяцев

Сидов:  0  |  0 KB/s  ]   Личеров:  0  |  0 KB/s  ]

* - сиды/пиры с внешних источников

   
 
Автор Сообщение

Паукан Пол:Муж

29-Май-2013 12:49

Лучшие планы / Best Laid Plans


Название: Лучшие планы
Оригинальное название: Best Laid Plans
Год выпуска: 1999
Жанр: Драма, триллер, криминал
Выпущено: США, Fox 2000 Pictures, Dogstar Films
Режиссер: Майк Баркер
В ролях: Алессандро Нивола, Риз Уизерспун, Джош Бролин, Джин Воланд, Джонатан МакМартри, Терренс Суини, Ребекка Клингер, Роки Кэрролл, Кейт Хендирксон, Оуэн Буш, Джесс Вудроу, Джеймс Марш, Майкл МакКлири, Терренс Ховард, Шон Непита, Джоди Вуд, Тедди Винсент, Хосе Мендоза, Майкл Дж. Хэгерти, Джейн Моррис, Дэвид Мэндел, Алек Берг, Джефф Шеффер

О фильме: В маленьком приморском городке Тропико, где всё было тихо, пока Ник (Алессандро Нивола) не оказался перед выбором: либо найти через два дня круглую сумму, либо умереть. Герой и его подружка Лисса (Риз Уизерспун) должны что-то предпринять, чтобы срочно достать деньги. Простой, на первый взгляд, выход из создавшегося положения предложил бывший одноклассник Ника Брайс (Джош Бролин), но когда дошло до дела, всё оказалось не так просто...

Качество: BDRip
Размер: 1.63 ГБ
Продолжительность: 01:33:17

Видео: XviD, 1910 Kбит/с, 720x384
Аудио 1: русский, 48 kHz, AC3, 2 ch, 192 kbps avg, ОРТ [Профессиональный многоголосый]
Аудио 2: русский, 48 kHz, AC3, 2 ch, 192 kbps avg, Лазер видео [Профессиональный двухголосый]

Внешние файлы
Аудио: английский, 48 kHz, AC3, 2 ch, 192 kbps avg [Оригинал]
Субтитры: русские
Субтитры: английские




Общее
Полное имя : E:VideoLuchshie.plany.1999.XviD.BDRipLuchshie.plany.1999.eng.srt
Размер файла : 115 Кбайт

Общее
Полное имя : E:VideoLuchshie.plany.1999.XviD.BDRipLuchshie.plany.1999.Original.eng.ac3
Формат : AC-3
Формат/Информация : Audio Coding 3
Размер файла : 128 Мбайт
Продолжительность : 1 ч. 33 м.
Режим общего битрейта : Постоянный
Общий поток : 192 Кбит/сек

Аудио
Формат : AC-3
Формат/Информация : Audio Coding 3
Расширение режима : CM (complete main)
Параметр Endianness формата : Big
Продолжительность : 1 ч. 33 м.
Вид битрейта : Постоянный
Битрейт : 192 Кбит/сек
Каналы : 2 канала
Расположение каналов : Front: L R
Частота : 48,0 КГц
Битовая глубина : 16 бит
Метод сжатия : С потерями
Размер потока : 128 Мбайт (100%)

Общее
Полное имя : E:VideoLuchshie.plany.1999.XviD.BDRipLuchshie.plany.1999.rus.srt
Размер файла : 106 Кбайт

Общее
Полное имя : E:VideoLuchshie.plany.1999.XviD.BDRipLuchshie.plany.1999.XviD.BDRip.avi
Формат : AVI
Формат/Информация : Audio Video Interleave
Размер файла : 1,50 Гбайт
Продолжительность : 1 ч. 33 м.
Общий поток : 2308 Кбит/сек
Программа кодирования : VirtualDubMod 1.5.10.2 (build 2540/release)
Библиотека кодирования : VirtualDubMod build 2540/release

Видео
Идентификатор : 0
Формат : MPEG-4 Visual
Профиль формата : Advanced Simple@L5
Параметр BVOP формата : 1
Параметр QPel формата : Нет
Параметр GMC формата : Без точки перехода
Параметр матрицы формата : Default (H.263)
Режим смешивания : Сжатый битовый поток
Идентификатор кодека : XVID
Идентификатор кодека/Подсказка : XviD
Продолжительность : 1 ч. 33 м.
Битрейт : 1910 Кбит/сек
Ширина : 720 пикселей
Высота : 384 пикселя
Соотношение сторон : 1,85:1
Частота кадров : 23,976 кадра/сек
Цветовое пространство : YUV
Субдискретизация насыщенности : 4:2:0
Битовая глубина : 8 бит
Тип развёртки : Прогрессивная
Метод сжатия : С потерями
Бит/(Пиксели*Кадры) : 0.288
Размер потока : 1,24 Гбайт (83%)
Библиотека кодирования : XviD 1.2.1 (UTC 2008-12-04)

Аудио #1
Идентификатор : 1
Формат : AC-3
Формат/Информация : Audio Coding 3
Расширение режима : CM (complete main)
Параметр Endianness формата : Big
Идентификатор кодека : 2000
Продолжительность : 1 ч. 33 м.
Вид битрейта : Постоянный
Битрейт : 192 Кбит/сек
Каналы : 2 канала
Расположение каналов : Front: L R
Частота : 48,0 КГц
Битовая глубина : 16 бит
Метод сжатия : С потерями
Размер потока : 128 Мбайт (8%)
Выравнивание : Разделение по промежуткам
Продолжительность промежутка : 42 мс. (1,00 видеокадр)
Время предзагрузки промежутка : 500 мс.

Аудио #2
Идентификатор : 2
Формат : AC-3
Формат/Информация : Audio Coding 3
Расширение режима : CM (complete main)
Параметр Endianness формата : Big
Идентификатор кодека : 2000
Продолжительность : 1 ч. 33 м.
Вид битрейта : Постоянный
Битрейт : 192 Кбит/сек
Каналы : 2 канала
Расположение каналов : Front: L R
Частота : 48,0 КГц
Битовая глубина : 16 бит
Метод сжатия : С потерями
Размер потока : 128 Мбайт (8%)
Выравнивание : Разделение по промежуткам
Продолжительность промежутка : 42 мс. (1,00 видеокадр)
Время предзагрузки промежутка : 500 мс.
pic pic pic
Для увеличения картинки щелкните мышкой по превью

Этот торрент недоступен для скачивания без регистрации, однако доступен по публичной magnet-ссылке (источники с публичных трекеров). Перед использованием ссылки прочтите, пожалуйста Пользовательское соглашение, а также как можно дольше оставайтесь на раздаче! Для того, чтобы скачать сам торрент-файл (который видит больше источников), а также для того, чтобы поблагодарить релизера, вам необходимо зарегистрироваться. Если регистрироваться лень - вы можете также попробовать скачать релиз по нашим партнерским ссылкам ниже.

[underverse.su].t27943.torrent
Трекер: Зарегистрирован   [ 29.05.2013 12:49 ]  

Статус: проверено (by Паукан at 29.05.2013 12:49)
Поблагодарили: пока никто не поблагодарил...
Тип торрента: публичный - доступные источники с открытых трекеров: 
Размер: 1,63 GB (занимает 0,37 DVDR, для записи нужно 1 болванка DVDR/RW)
 
 

Яндекс.Метрика powered by Sphinx


В Н И М А Н И Е
Сайт не распространяет и не хранит электронные версии произведений, а лишь бесплатно и без коммерческой выгоды (не требуя взамен платы,
SMS и т.д.) предоставляет доступ к создаваемому пользователями каталогу ссылок на торрент-файлы, которые содержат только списки хеш-сумм.
Убедительная просьба с жалобами обращаться напрямую к пользователю, разместившему торрент файл.

Вверх