Loading...
Error

Агент / Серии: 1-16 [16] (Георгий Гаврилов, Дмитрий Кузьмин) [2013 г., детектив, приключения, SatRip]

Статистика раздачи
Размер:  8,59 GB   |    Зарегистрирован:  3 года 6 месяцев   |    Скачан:  40 раз

Полного источника не было: 21 час

Сидов:  0  |  0 KB/s  ]   Личеров:  0  |  0 KB/s  ]

* - сиды/пиры с внешних источников

   
 
Автор Сообщение

nemos Пол:Муж

28-Май-2013 06:43

Агент


Год выпуска: 2013
Жанр: Детектив, приключения
Страна: Россия
Режиссер: Георгий Гаврилов, Дмитрий Кузьмин
В ролях: Юрий Беляев, Алексей Серебряков, Агния Дитковските, Ада Роговцева, Татьяна Лютаева, Ольга Сумская, Илья Шакунов
Сюжет фильма:
Секретному агенту спецслужб Андрею Козыреву (Алексей Серебряков) по прозвищу Американец, несправедливо осужденному за убийство, однажды выпадает шанс изменить свою жизнь. Он совершает дерзкий побег из колонии, чтобы разыскать своего врага, доказать свою невиновность и спасти мир от нового смертельного вируса, грозящего гибелью миллионам людей. Несколько лет назад Андрей Козырев и его начальник генерал Данилов (Юрий Беляев) разрабатывали дело о новом мощном управляемом вирусе. В ходе расследования они выяснили, что производством вируса занимался их бывший коллега – некто Самсонов (Илья Шакунов). Но остановить безжалостного экспериментатора офицеры не успели. Самсонов совершил покушение, в результате которого погибли жена и дочь Козырева. Вскоре при взрыве погиб и сам Самсонов, а Козырев, оказавшийся главным подозреваемым, был осужден за его убийство на 15 лет...


Качество видео: SatRip

Продолжительность: 00:41:05 серия
Формат: AVI
Видео: XviD, 720x400, 1670 kbps
Аудио: русский, MP3 2.0, 192kbps

Код:

F:\С underverse-3 Фильмы\Agent.2013.SATRip.Files-x\Agent.16.seriya.2013.SATRip.Files-x.avi
   General
      Complete name : F:\С underverse-3 Фильмы\Agent.2013.SATRip.Files-x\Agent.16.seriya.2013.SATRip.Files-x.avi
      Format : AVI
      Format/Info : Audio Video Interleave
      File size : 550 MiB
      Duration : 41mn 5s
      Overall bit rate : 1 872 Kbps
      Writing application : VirtualDubMod 1.5.10.3 | www.virtualdub-fr.org || (build 2550/release)
      Writing library : VirtualDubMod build 2550/release
   Video #0
      ID : 0
      Format : MPEG-4 Visual
      Format profile : Advanced Simple@L5
      Format settings, BVOP : 1
      Format settings, QPel : No
      Format settings, GMC : No warppoints
      Format settings, Matrix : Default (H.263)
      Codec ID : XVID
      Codec ID/Hint : XviD
      Duration : 41mn 5s
      Bit rate : 1 670 Kbps
      Width : 720 pixels
      Height : 400 pixels
      Display aspect ratio : 16:9
      Frame rate : 25.000 fps
      Color space : YUV
      Chroma subsampling : 4:2:0
      Bit depth : 8 bits
      Scan type : Progressive
      Compression mode : Lossy
      Bits/(Pixel*Frame) : 0.232
      Stream size : 491 MiB (89%)
      Writing library : XviD 1.2.1 (UTC 2008-12-04)
   Audio #1
      ID : 1
      Format : MPEG Audio
      Format version : Version 1
      Format profile : Layer 3
      Codec ID : 55
      Codec ID/Hint : MP3
      Duration : 41mn 4s
      Bit rate mode : Constant
      Bit rate : 192 Kbps
      Channel(s) : 2 channels
      Sampling rate : 48.0 KHz
      Compression mode : Lossy
      Stream size : 56.4 MiB (10%)
      Alignment : Aligned on interleaves
      Interleave, duration : 40 ms (1.00 video frame)
      Interleave, preload duration : 504 ms
      Writing library : LAME3.98r
      Encoding settings : -m s -V 4 -q 2 -lowpass 18.6 -b 192
Семпл: http://multi-up.com/870099

picpicpicpicpicpicpicpicpicpicpicpicpicpicpic
Для увеличения картинки щелкните мышкой по превью
Сериал который был выложен и зарегистрирован более двух месяцев назад буду раздавать с 23.00ч до 06.00ч утра ( вина в этом немоя, а пользователей которые неподдерживают раздачу)

Этот торрент недоступен для скачивания без регистрации, однако доступен по публичной magnet-ссылке (источники с публичных трекеров). Перед использованием ссылки прочтите, пожалуйста Пользовательское соглашение, а также как можно дольше оставайтесь на раздаче! Для того, чтобы скачать сам торрент-файл (который видит больше источников), а также для того, чтобы поблагодарить релизера, вам необходимо зарегистрироваться. Если регистрироваться лень - вы можете также попробовать скачать релиз по нашим партнерским ссылкам ниже.

[underverse.su].t28026.torrent
Трекер: Зарегистрирован   [ 01.06.2013 06:58 ]  

Статус: проверено (by Чертёнок at 01.06.2013 10:12)
Поблагодарили: 4 человека
Тип торрента: публичный - доступные источники с открытых трекеров: 
Размер: 8,59 GB (занимает 1,96 DVDR, для записи нужно 2 болванки DVDR/RW)
 
 
Похожие темы
Форум Тема Автор Торрент Отв. Посл. сооб.
xUSSR сериалы Агент / Серии: 1-16 из 16 (Дмитрий Кузьмин, Георгий Гаврилов) [2013 г., детектив, приключения, криминальный, DVDRip] konopic
2 | 0

0 | 1523

13

26.11.2013 10:14



Последний раз редактировалось: nemos (06.11.2014 11:22), всего редактировалось 8 раз(а)

nemos Пол:Муж

30-Май-2013 07:17

Обновлена(16)


Последний раз редактировалось: nemos (01.06.2013 06:59), всего редактировалось 1 раз

egismac Пол:Муж

31-Май-2013 00:26

Спасибо.

Яндекс.Метрика powered by Sphinx


В Н И М А Н И Е
Сайт не распространяет и не хранит электронные версии произведений, а лишь бесплатно и без коммерческой выгоды (не требуя взамен платы,
SMS и т.д.) предоставляет доступ к создаваемому пользователями каталогу ссылок на торрент-файлы, которые содержат только списки хеш-сумм.
Убедительная просьба с жалобами обращаться напрямую к пользователю, разместившему торрент файл.

Вверх