Loading...
Error

Таланты и поклонники - Алексей Гуськов [2012 г., документальный, личности, TVRip]

Статистика раздачи
Размер:  850 MB   |    Зарегистрирован:  3 года 6 месяцев   |    Скачан:  0 раз

Полного источника не было: 2 года 9 месяцев

Сидов:  0  |  0 KB/s  ]   Личеров:  0  |  0 KB/s  ]

* - сиды/пиры с внешних источников

   
 
Автор Сообщение

матроскин Пол:Муж

27-Май-2013 15:21

Таланты и поклонники - Алексей Гуськов


Год выпуска: 2012
Жанр: документальный, личности
Страна: Россия
Выпущено: Телеканал ТВЦ
Участвуют: Дмитрий Назаров, Андрей Мерзликин, Александр Митта, Светлана Иванова, Александр Галибин, Вячеслав Шалевич, Георгий Шенгелия
Сюжет фильма:
Этот актёр очень любим и популярен, несмотря на то, что чаще играет отрицательных персонажей. Но благодаря яркому таланту и блестящей игре его лиходеи и преступники для многих зрителей стали более привлекательными, чем положительные герои… Зрителей программы "Таланты и поклонники" ждёт много интересных рассказов от коллег Гуськова по экрану и сцене, его учеников и, конечно же, много музыкальных номеров.
Качество видео: TVRip

Продолжительность: 01:14:56
Формат: avi
Видео: XviD, 704x432, 1448 kbps
Аудио: русский, оригинал, MP3 2.0, 128 kbps

Код:

General
Complete name                    : C:\Users\Security\Desktop\Таланты и поклонники.avi
Format                           : AVI
Format/Info                      : Audio Video Interleave
File size                        : 850 MiB
Duration                         : 1h 14mn
Overall bit rate                 : 1 586 Kbps
Writing application              : VirtualDubMod 1.5.10.3 | www.virtualdub-fr.org || (build 2550/release)
Writing library                  : VirtualDubMod build 2550/release

Video
ID                               : 0
Format                           : MPEG-4 Visual
Format profile                   : Streaming Video@L1
Format settings, BVOP            : Yes
Format settings, QPel            : No
Format settings, GMC             : No warppoints
Format settings, Matrix          : Default (MPEG)
Codec ID                         : XVID
Codec ID/Hint                    : XviD
Duration                         : 1h 14mn
Bit rate                         : 1 448 Kbps
Width                            : 704 pixels
Height                           : 432 pixels
Display aspect ratio             : 1.630
Frame rate                       : 25.000 fps
Resolution                       : 24 bits
Colorimetry                      : 4:2:0
Scan type                        : Progressive
Bits/(Pixel*Frame)               : 0.190
Stream size                      : 776 MiB (91%)
Writing library                  : XviD 1.2.1 (UTC 2008-12-04)

Audio
ID                               : 1
Format                           : MPEG Audio
Format version                   : Version 1
Format profile                   : Layer 3
Codec ID                         : 55
Codec ID/Hint                    : MP3
Duration                         : 1h 14mn
Bit rate mode                    : Constant
Bit rate                         : 128 Kbps
Channel(s)                       : 2 channels
Sampling rate                    : 48.0 KHz
Resolution                       : 16 bits
Stream size                      : 68.6 MiB (8%)
Alignment                        : Aligned on interleaves
Interleave, duration             : 40 ms (1.00 video frame)
Interleave, preload duration     : 504 ms
Writing library                  : LAME3.99r
Encoding settings                : -m s -V 4 -q 2 -lowpass 17 -b 128

picpicpicpicpicpic
Для увеличения картинки щелкните мышкой по превью

Этот торрент недоступен для скачивания без регистрации, однако доступен по публичной magnet-ссылке (источники с публичных трекеров). Перед использованием ссылки прочтите, пожалуйста Пользовательское соглашение, а также как можно дольше оставайтесь на раздаче! Для того, чтобы скачать сам торрент-файл (который видит больше источников), а также для того, чтобы поблагодарить релизера, вам необходимо зарегистрироваться. Если регистрироваться лень - вы можете также попробовать скачать релиз по нашим партнерским ссылкам ниже.

[underverse.su].t27876.torrent
Трекер: Зарегистрирован   [ 27.05.2013 15:21 ]  

Статус: проверено (by матроскин at 27.05.2013 15:22)
Поблагодарили: пока никто не поблагодарил...
Тип торрента: публичный - доступные источники с открытых трекеров: 
Размер: 850 MB (занимает 0,19 DVDR, для записи нужно 1 болванка DVDR/RW)
 
 

матроскин Пол:Муж

27-Май-2013 15:22


Яндекс.Метрика powered by Sphinx


В Н И М А Н И Е
Сайт не распространяет и не хранит электронные версии произведений, а лишь бесплатно и без коммерческой выгоды (не требуя взамен платы,
SMS и т.д.) предоставляет доступ к создаваемому пользователями каталогу ссылок на торрент-файлы, которые содержат только списки хеш-сумм.
Убедительная просьба с жалобами обращаться напрямую к пользователю, разместившему торрент файл.

Вверх