Loading...
Error

Никто не хотел забывать. Будрайтис, Банионис... [2009 г., документальный, личности, искусство, TVRip]

Статистика раздачи
Размер:  531 MB   |    Зарегистрирован:  3 года 6 месяцев   |    Скачан:  3 раза
Сидов:  1  |  0 KB/s  ]   Личеров:  0  |  0 KB/s  ]

* - сиды/пиры с внешних источников

   
 
Автор Сообщение

матроскин Пол:Муж

27-Май-2013 09:43

Никто не хотел забывать. Будрайтис, Банионис...


Год выпуска: 2009
Жанр: документальный, личности, искусство
Страна: Россия
Режиссер: Наталья Кадырова
Выпущено: Пятый канал ТВ
Сюжет фильма:
Рижское взморье, Юрмала, духи "Дзинтарс", песни Раймонда Паулса, фильм "Театр" и Вия Артмане. Символы Прибалтики были известны каждому советскому человеку. А сама Прибалтика была символом ДРУГОЙ, западной жизни. Где живут ДРУГИЕ люди, где ДРУГАЯ архитектура и где снимают ДРУГОЕ, особенное кино. Как живут звезды прибалтийского кино сегодня? Как сложились их судьбы? В России об этом почти ничего не известно. До зрителей доходят только слухи. Но и слухов с каждым годом становится все меньше. Даже до перестройки в большой и "дружной" советской стране прибалты держались особняком. Сейчас же от былой дружбы осталось только кино.
Качество видео: TVRip

Продолжительность: 00:45:22
Формат: avi
Видео: DivX 5, 704x528, 1498 kbps
Аудио: русский, оригинал, MP3 2.0, 128 kbps

Код:

General
Complete name                    : C:\Users\Security\Desktop\Никто не хотел забывать.avi
Format                           : AVI
Format/Info                      : Audio Video Interleave
File size                        : 531 MiB
Duration                         : 45mn 22s
Overall bit rate                 : 1 637 Kbps
Writing library                  : VirtualDub build 32839/release

Video
ID                               : 0
Format                           : MPEG-4 Visual
Format profile                   : Streaming Video@L1
Format settings, BVOP            : Yes
Format settings, QPel            : No
Format settings, GMC             : No warppoints
Format settings, Matrix          : Default (H.263)
Muxing mode                      : Packed bitstream
Codec ID                         : DX50
Codec ID/Hint                    : DivX 5
Duration                         : 45mn 22s
Bit rate                         : 1 499 Kbps
Width                            : 704 pixels
Height                           : 528 pixels
Display aspect ratio             : 4/3
Frame rate                       : 25.000 fps
Resolution                       : 24 bits
Colorimetry                      : 4:2:0
Scan type                        : Progressive
Bits/(Pixel*Frame)               : 0.161
Stream size                      : 486 MiB (92%)
Writing library                  : XviD 1.2.1 (UTC 2008-12-04)

Audio
ID                               : 1
Format                           : MPEG Audio
Format version                   : Version 1
Format profile                   : Layer 3
Codec ID                         : 55
Codec ID/Hint                    : MP3
Duration                         : 45mn 22s
Bit rate mode                    : Constant
Bit rate                         : 128 Kbps
Channel(s)                       : 2 channels
Sampling rate                    : 48.0 KHz
Resolution                       : 16 bits
Stream size                      : 41.5 MiB (8%)
Alignment                        : Split accross interleaves
Interleave, duration             : 40 ms (1.00 video frame)
Interleave, preload duration     : 500 ms

picpicpicpicpicpic
Для увеличения картинки щелкните мышкой по превью

Этот торрент недоступен для скачивания без регистрации, однако доступен по публичной magnet-ссылке (источники с публичных трекеров). Перед использованием ссылки прочтите, пожалуйста Пользовательское соглашение, а также как можно дольше оставайтесь на раздаче! Для того, чтобы скачать сам торрент-файл (который видит больше источников), а также для того, чтобы поблагодарить релизера, вам необходимо зарегистрироваться. Если регистрироваться лень - вы можете также попробовать скачать релиз по нашим партнерским ссылкам ниже.

[underverse.su].t27857.torrent
Трекер: Зарегистрирован   [ 27.05.2013 09:43 ]  

Статус: проверено (by матроскин at 27.05.2013 09:44)
Поблагодарили: пока никто не поблагодарил...
Тип торрента: публичный - доступные источники с открытых трекеров: 
Размер: 531 MB (занимает 0,12 DVDR, для записи нужно 1 болванка DVDR/RW)
 
 

матроскин Пол:Муж

27-Май-2013 09:44


Яндекс.Метрика powered by Sphinx


В Н И М А Н И Е
Сайт не распространяет и не хранит электронные версии произведений, а лишь бесплатно и без коммерческой выгоды (не требуя взамен платы,
SMS и т.д.) предоставляет доступ к создаваемому пользователями каталогу ссылок на торрент-файлы, которые содержат только списки хеш-сумм.
Убедительная просьба с жалобами обращаться напрямую к пользователю, разместившему торрент файл.

Вверх