Loading...
Error

Перерождение / Rebirth / Bangkok Revenge (Жан-Марк Минео) [2011 г., боевик, драма, HDRip] VO

Статистика раздачи
Размер:  1,37 GB   |    Зарегистрирован:  3 года 6 месяцев   |    Скачан:  15 раз

Полного источника не было: 10 месяцев

Сидов:  0  |  0 KB/s  ]   Личеров:  0  |  0 KB/s  ]

* - сиды/пиры с внешних источников

   
 
Автор Сообщение

Су-34 Пол:Муж

25-Май-2013 17:45

Перерождение / Rebirth / Bangkok Revenge


Год выпуска: 2011
Жанр: боевик, драма
Страна: Франция
Режиссер: Жан-Марк Минео
В ролях: Джон Фу, Каролин Дюсе, Микаэль Коэн, Апхиради Пхавапхутанон, Винай Краибутр, Ковитч Ватхана, Лиоутсиа Гоубайдоуллина, Джулалук Исмалоне, Тхирапхонг Риавруквонг, Дом Хетракул
Сюжет фильма:
Манит — 10-летний мальчик, ставший свидетелем убийства своих родителей. Позабыв о жалости, убийцы решают избавиться от него. Получив пулю в голову, ребёнок чудом выживает и поправляется от ранения, но начинает страдать атараксией. Из-за травмы мозга он не в состоянии испытывать хоть какие-то эмоции. Спасённый от верной смерти пожилым мастером боевых искусств, Манит, 20 лет спустя превращается в настоящую боевую машину и возвращается туда, где провёл своё детство… Грядёт правосудие… И быть смертям…
Качество видео: HDRip

Продолжительность: 01:21:52
Формат: AVI
Видео: XviD, 720x384, 1936 kbps
Аудио: русский, одноголосый закадровый [любительский], AC3 (mono), 448 kbps

Код:

D:\Torrents\Pererozhdenie.2011.L1.HDRip.avi
 General
 Format : AVI
 Format/Info : Audio Video Interleave
 File size : 1.37 GiB
 Duration : 1h 21mn
 Overall bit rate : 2 394 Kbps
 Writing application : VirtualDubMod 1.5.10.2 (build 2540/release)
 Writing library : VirtualDubMod build 2540/release
 Video #0
 ID : 0
 Format : MPEG-4 Visual
 Format profile : Advanced Simple@L5
 Format settings, BVOP : 2
 Format settings, QPel : No
 Format settings, GMC : No warppoints
 Format settings, Matrix : Default (MPEG)
 Codec ID : XVID
 Codec ID/Hint : XviD
 Duration : 1h 21mn
 Bit rate : 1 936 Kbps
 Width : 720 pixels
 Height : 384 pixels
 Display aspect ratio : 1.85:1
 Frame rate : 23.976 fps
 Color space : YUV
 Chroma subsampling : 4:2:0
 Bit depth : 8 bits
 Scan type : Progressive
 Compression mode : Lossy
 Bits/(Pixel*Frame) : 0.292
 Stream size : 1.11 GiB (81%)
 Writing library : XviD 1.2.1 (UTC 2008-12-04)
 Audio #1
 ID : 1
 Format : AC-3
 Format/Info : Audio Coding 3
 Mode extension : CM (complete main)
 Format settings, Endianness : Big
 Codec ID : 2000
 Duration : 1h 21mn
 Bit rate mode : Constant
 Bit rate : 448 Kbps
 Channel(s) : 6 channels
 Channel positions : Front: L C R, Side: L R, LFE
 Sampling rate : 48.0 KHz
 Bit depth : 16 bits
 Compression mode : Lossy
 Stream size : 262 MiB (19%)
 Alignment : Split accross interleaves
 Interleave, duration : 42 ms (1.00 video frame)
 Interleave, preload duration : 500 ms
Семпл: http://multi-up.com/869235

picpicpicpic
Для увеличения картинки щелкните мышкой по превью

Этот торрент недоступен для скачивания без регистрации, однако доступен по публичной magnet-ссылке (источники с публичных трекеров). Перед использованием ссылки прочтите, пожалуйста Пользовательское соглашение, а также как можно дольше оставайтесь на раздаче! Для того, чтобы скачать сам торрент-файл (который видит больше источников), а также для того, чтобы поблагодарить релизера, вам необходимо зарегистрироваться. Если регистрироваться лень - вы можете также попробовать скачать релиз по нашим партнерским ссылкам ниже.

[underverse.su].t27828.torrent
Трекер: Зарегистрирован   [ 25.05.2013 17:45 ]  

Статус: проверено (by Чертёнок at 25.05.2013 18:02)
Поблагодарили: 1 человек
Тип торрента: публичный - доступные источники с открытых трекеров: 
Размер: 1,37 GB (занимает 0,31 DVDR, для записи нужно 1 болванка DVDR/RW)
 
 
Похожие темы
Форум Тема Автор Торрент Отв. Посл. сооб.
Зарубежное кино [DVDRip, Low-Res HDRip, и т.д.] Перерождение / Restoration (Зак Уорд / Zack Ward) [2016 г., ужасы, НDRip] VO (Петр Титов) + Original (Eng) 90ytr90
105 | 4

0 | 579

7

18.05.2016 08:29


Яндекс.Метрика powered by Sphinx


В Н И М А Н И Е
Сайт не распространяет и не хранит электронные версии произведений, а лишь бесплатно и без коммерческой выгоды (не требуя взамен платы,
SMS и т.д.) предоставляет доступ к создаваемому пользователями каталогу ссылок на торрент-файлы, которые содержат только списки хеш-сумм.
Убедительная просьба с жалобами обращаться напрямую к пользователю, разместившему торрент файл.

Вверх