Loading...
Error

Корпорация монстров в 3D / Monsters, Inc. in 3D (Пит Доктер, Дэвид Силверман, Ли Анкрич) [2001 г., мультфильм, фэнтези, комедия, приключения, семейный, BDRip 1080p] Dub + VO Anaglyph (Дюбуа)

Статистика раздачи
Размер:  6 GB   |    Зарегистрирован:  4 года 11 месяцев   |    Скачан:  3 раза

Полного источника не было: 3 года 7 месяцев

Сидов:  0  |  0 KB/s  ]   Личеров:  0  |  0 KB/s  ]

* - сиды/пиры с внешних источников

   
 
Автор Сообщение

slaventi-69 Пол:Муж

25-Май-2013 11:55

Корпорация монстров в 3D / Monsters, Inc. in 3D


Год выпуска: 2001
Жанр: мультфильм, фэнтези, комедия, приключения, семейный
Страна: США
Режиссер: Пит Доктер, Дэвид Силверман, Ли Анкрич
Роли озвучивали: Джон Гудмен, Билли Кристал, Мэри Гиббс, Стив Бушеми, Джеймс Коберн, Дженнифер Тилли, Боб Питерсон, Джон Ратценбергер, Фрэнк Оз, Дэн Джерсон,
Роли дублировали: Сергей Паршин, Олег Куликович, Лидия Семёнова, Евгений Дятлов, Борис Улитин
Сюжет фильма:
Склизский гад в сливном бачке, мохнатый зверь, похожий на чудовище из «Аленького цветочка», гигантские мокрицы под кроватью — все они существуют на самом деле. Все, что им нужно — пугать детей, потому что из детских криков они получают электричество.Полнометражный мультфильм рассказывает о кризисах в мире монстров, их жизни. Но однажды вся мирная жизнь монстров оказывается под угрозой: в их мир попадает ребенок. А с детьми столько хлопот, что они могут довести даже монстров.

Доп. информация: Формат 3D: Anaglyph (Дюбуа)


Качество видео: BDRip 1080p

Продолжительность: 01:32:07
Формат: mkv
Видео: x264, 1920x1072, 8039 kbps
Аудио #1: русский, дублированный [лицензия], AC3 5.1, 448 kbps
Аудио #2: русский, одноголосый закадровый [профессиональный (Гаврилов)], AC3 5.1, 448 kbps
Аудио #3: английский, оригинал, AC3 5.1, 448 kbps

Код:

General
Complete name                    : E:\Monsters.Inc.2001.3D.(Anaglyph_Dubois).mkv
Format                           : Matroska
File size                        : 6.00 GiB
Duration                         : 1h 32mn
Overall bit rate                 : 9 324 Kbps
Writing application              : HandBrake 0.9.8
Writing library                  : libmkv 0.6.5

Video
ID                               : 1
Format                           : AVC
Format/Info                      : Advanced Video Codec
Format profile                   : High@L4.0
Format settings, CABAC           : Yes
Format settings, ReFrames        : 4 frames
Muxing mode                      : Container profile=Unknown@4.0
Codec ID                         : V_MPEG4/ISO/AVC
Duration                         : 1h 32mn
Bit rate                         : 7 794 Kbps
Nominal bit rate                 : 8 039 Kbps
Width                            : 1 920 pixels
Height                           : 1 072 pixels
Display aspect ratio             : 1.853
Frame rate                       : 23.976 fps
Resolution                       : 24 bits
Colorimetry                      : 4:2:0
Scan type                        : Progressive
Bits/(Pixel*Frame)               : 0.158
Stream size                      : 5.01 GiB (84%)
Writing library                  : x264 core 120
Encoding settings                : cabac=1 / ref=4 / deblock=1:-1:-1 / analyse=0x3:0x113 / me=hex / subme=2 / psy=1 / psy_rd=1.00:0.15 / mixed_ref=1 / me_range=16 / chroma_me=1 / trellis=0 / 8x8dct=1 / cqm=0 / deadzone=21,11 / fast_pskip=1 / chroma_qp_offset=0 / threads=1 / sliced_threads=0 / nr=0 / decimate=1 / interlaced=0 / bluray_compat=0 / constrained_intra=0 / bframes=3 / b_pyramid=2 / b_adapt=1 / b_bias=0 / direct=1 / weightb=1 / open_gop=0 / weightp=2 / keyint=240 / keyint_min=24 / scenecut=40 / intra_refresh=0 / rc_lookahead=40 / rc=abr / mbtree=1 / bitrate=8039 / ratetol=1.0 / qcomp=0.60 / qpmin=3 / qpmax=69 / qpstep=4 / ip_ratio=1.40 / aq=1:1.00

Audio #1
ID                               : 2
Format                           : AC-3
Format/Info                      : Audio Coding 3
Codec ID                         : A_AC3
Duration                         : 1h 32mn
Bit rate mode                    : Constant
Bit rate                         : 448 Kbps
Channel(s)                       : 6 channels
Channel positions                : Front: L C R, Surround: L R, LFE
Sampling rate                    : 48.0 KHz
Stream size                      : 295 MiB (5%)
Language                         : Russian

Audio #2
ID                               : 3
Format                           : AC-3
Format/Info                      : Audio Coding 3
Codec ID                         : A_AC3
Duration                         : 1h 32mn
Bit rate mode                    : Constant
Bit rate                         : 448 Kbps
Channel(s)                       : 6 channels
Channel positions                : Front: L C R, Surround: L R, LFE
Sampling rate                    : 48.0 KHz
Stream size                      : 295 MiB (5%)
Language                         : Russian

Audio #3
ID                               : 4
Format                           : AC-3
Format/Info                      : Audio Coding 3
Codec ID                         : A_AC3
Duration                         : 1h 32mn
Bit rate mode                    : Constant
Bit rate                         : 448 Kbps
Channel(s)                       : 6 channels
Channel positions                : Front: L C R, Surround: L R, LFE
Sampling rate                    : 48.0 KHz
Stream size                      : 295 MiB (5%)
Language                         : English

picpicpicpic pic pic
Для увеличения картинки щелкните мышкой по превью

Этот торрент недоступен для скачивания без регистрации, однако доступен по публичной magnet-ссылке (источники с публичных трекеров). Перед использованием ссылки прочтите, пожалуйста Пользовательское соглашение, а также как можно дольше оставайтесь на раздаче! Для того, чтобы скачать сам торрент-файл (который видит больше источников), а также для того, чтобы поблагодарить релизера, вам необходимо зарегистрироваться. Если регистрироваться лень - вы можете также попробовать скачать релиз по нашим партнерским ссылкам ниже. Кроме того, зарегистрированным пользователям не показывается всплывающая реклама при скачивании.

[underverse.su].t27819.torrent
Трекер: Зарегистрирован   [ 25.05.2013 11:55 ]  

Статус: проверено (by Чертёнок at 25.05.2013 13:19)
Поблагодарили: пока никто не поблагодарил...
Тип торрента: публичный - доступные источники с открытых трекеров: 
Размер: 6 GB (занимает 1,37 DVDR, для записи нужно 2 болванки DVDR/RW)
 
 

31-Янв-2018 19:01

Топик был перенесен из форума Мультфильмы [HDDVDRip / BDRip / WEB-DL / HDTV 1080/720р] в форум Архив (мультфильмы высокого качества)


[cron robot]
 

Яндекс.Метрика powered by Sphinx


В Н И М А Н И Е
Сайт не распространяет и не хранит электронные версии произведений, а лишь бесплатно и без коммерческой выгоды (не требуя взамен платы,
SMS и т.д.) предоставляет доступ к создаваемому пользователями каталогу ссылок на торрент-файлы, которые содержат только списки хеш-сумм.
Убедительная просьба с жалобами обращаться напрямую к пользователю, разместившему торрент файл.

Вверх