Loading...
Error

Город Принял (Вячеслав Максаков ) [1979 г., детектив, TVRip]

Статистика раздачи
Размер:  1,07 GB   |    Зарегистрирован:  3 года 6 месяцев   |    Скачан:  2 раза

Полного источника не было: 6 дней

Сидов:  0  |  0 KB/s  ]   Личеров:  0  |  0 KB/s  ]

* - сиды/пиры с внешних источников

   
 
Автор Сообщение

матроскин Пол:Муж

24-Май-2013 23:44

Город Принял


Год выпуска: 1979
Жанр: детектив
Страна: СССР
Режиссер: Вячеслав Максаков
В ролях: Михаил Чигарев, Инна Аленикова, Виктор Шульгин, Николай Граббе, Георгий Николаенко, Анатолий Наврузов, Руслан Ахметов, Юрий Веялис, Юрий Потёмкин, Александр Пороховщиков, Павел Махотин, Александр Адабашьян, Валентина Воилкова
Сюжет фильма:
Фильм рассказывает об обычном дне дежурной группы МУРа московской милиции. Старший инспектор уголовного розыска капитан Станислав Тихонов неожиданно встречает свою первую любовь Риту Ушакову, которая пришла работать в милицию врачом. Сегодня её первое дежурство. А вот друг Стаса, следователь Скуратов, дежурит в последний раз; устав от «суровой романтики», он решил уйти в аспирантуру. За день группа раскрывает несколько самых разных преступлений: мошенничество, разбойное нападение на квартиру, ловит телефонного хулигана и даже оказывает помощь роженице. Параллельно идет расследование вооруженного ограбления сберкассы, организовал которое матерый уголовник Шувалов. Так работала Советская милиция которая всегда приходила на помощь гражданам СССР. Фильм снят по повести Аркадия и Георгия Вайнеров.


Качество видео: TVRip

Продолжительность: 01:15:20
Формат: avi
Видео: XviD, 704x288, 1836 kbps
Аудио: русский, оригинал, AC3 2.0, 192 kbps

Код:

General
Complete name                    : C:\Users\Security\Desktop\Город принял.avi
Format                           : AVI
Format/Info                      : Audio Video Interleave
File size                        : 1.07 GiB
Duration                         : 1h 15mn
Overall bit rate                 : 2 039 Kbps

Video
ID                               : 0
Format                           : MPEG-4 Visual
Format profile                   : Simple@L3
Format settings, BVOP            : No
Format settings, QPel            : No
Format settings, GMC             : No warppoints
Format settings, Matrix          : Default (H.263)
Codec ID                         : XVID
Codec ID/Hint                    : XviD
Duration                         : 1h 15mn
Bit rate                         : 1 837 Kbps
Width                            : 704 pixels
Height                           : 288 pixels
Display aspect ratio             : 2.444
Frame rate                       : 25.000 fps
Resolution                       : 24 bits
Colorimetry                      : 4:2:0
Scan type                        : Progressive
Bits/(Pixel*Frame)               : 0.362
Stream size                      : 990 MiB (90%)
Writing library                  : XviD 1.2.1 (UTC 2008-12-04)

Audio
ID                               : 1
Format                           : AC-3
Format/Info                      : Audio Coding 3
Codec ID                         : 2000
Duration                         : 1h 15mn
Bit rate mode                    : Constant
Bit rate                         : 192 Kbps
Channel(s)                       : 2 channels
Channel positions                : L R
Sampling rate                    : 48.0 KHz
Stream size                      : 103 MiB (9%)
Alignment                        : Aligned on interleaves
Interleave, duration             : 40 ms (1.00 video frame)

picpicpicpicpicpic
Для увеличения картинки щелкните мышкой по превью

Этот торрент недоступен для скачивания без регистрации, однако доступен по публичной magnet-ссылке (источники с публичных трекеров). Перед использованием ссылки прочтите, пожалуйста Пользовательское соглашение, а также как можно дольше оставайтесь на раздаче! Для того, чтобы скачать сам торрент-файл (который видит больше источников), а также для того, чтобы поблагодарить релизера, вам необходимо зарегистрироваться. Если регистрироваться лень - вы можете также попробовать скачать релиз по нашим партнерским ссылкам ниже.

[underverse.su].t27809.torrent
Трекер: Зарегистрирован   [ 24.05.2013 23:44 ]  

Статус: проверено (by матроскин at 24.05.2013 23:45)
Поблагодарили: пока никто не поблагодарил...
Тип торрента: публичный - доступные источники с открытых трекеров: 
Размер: 1,07 GB (занимает 0,25 DVDR, для записи нужно 1 болванка DVDR/RW)
 
 

матроскин Пол:Муж

25-Май-2013 00:09

ПЕСНЯ ИЗ ФИЛЬМА "ГОРОД ПРИНЯЛ"

Мой город

муз. Владимир Комаров.
сл. О. Писаржевская, А. Монастырев.

Мой город тих в часы рассвета,
Ему к лицу цветенье лета,
И нам беречь с тобою это
Счастливый мир и тишину
Нас дома ждут - родным не спится,
А эта ночь так долго длится...
И вот опять машина мчится
В тревожный путь,опасный путь

Может судьбой это все и зовется
Только заботой в сердце моем
В сердце забота, как боль отзовется
Близкой тревогой, бессонным огнем...

И пусть опять нам нет покоя
И может пуля ждет порою
Но мы всегда готовы к бою
За этот мир за эту жизнь

Может судьбой это все и зовется
Только заботой в сердце моем
В сердце забота, как боль отзовется
Близкой тревогой, бессонным огнем...


Яндекс.Метрика powered by Sphinx


В Н И М А Н И Е
Сайт не распространяет и не хранит электронные версии произведений, а лишь бесплатно и без коммерческой выгоды (не требуя взамен платы,
SMS и т.д.) предоставляет доступ к создаваемому пользователями каталогу ссылок на торрент-файлы, которые содержат только списки хеш-сумм.
Убедительная просьба с жалобами обращаться напрямую к пользователю, разместившему торрент файл.

Вверх