Loading...
Error

Разговор (Сергей Комаров) [2012 г., драма, BDRip] Original

Статистика раздачи
Размер:  1,37 GB   |    Зарегистрирован:  3 года 6 месяцев   |    Скачан:  18 раз

Полного источника не было: 1 год 4 месяца

Сидов:  0  |  0 KB/s  ]   Личеров:  0  |  0 KB/s  ]

* - сиды/пиры с внешних источников

   
 
Автор Сообщение

Доктор Ватсон Пол:Муж

24-Май-2013 15:48

Разговор


Год выпуска: 2012
Жанр: драма
Страна: Россия
Режиссер: Сергей Комаров
В ролях: Гоша Куценко, Анна Канарис, Владимир Горюшин, Игорь Кистол, Александр Сирин, Георгий Тополага
Сюжет фильма:
Борис приходит в себя в тюрьме. Оказывается, что три дня назад он сбил человека. Но вспомнить аварию и обстоятельства, предшествующие ей, Борису не удается даже на допросе. Как все произошло? Кого он сбил? Головоломка начинает складываться, когда на свидание к Борису приходит жена. В разговоре с ней он узнает, что наказан за преступление, которое совершил не сейчас. А наказание это намного страшнее тюремного заключения.

  • Мировая премьера: 31 августа 2012, Канада, Международный кинофестиваль в Монреале
  • Российская премьера: 11 апреля 2013, «Каропрокат»

Качество видео: BDRip

Продолжительность: 01:17:11
Формат: AVI
Видео: XviD, 720x304 (2.37:1), 2075 kbps
Аудио: русский, оригинал, AC3 5.1, 448 kbps

Код:

General
Complete name                            : D:\Раздачи\Razgovor.IRONCLUB.avi
Format                                   : AVI
Format/Info                              : Audio Video Interleave
File size                                : 1.37 GiB
Duration                                 : 1h 17mn
Overall bit rate                         : 2 533 Kbps
Movie name                               : Razgovor.2012.O.BDRip.IRONCLUB
Director                                 : IRONCLUB
Genre                                    : Drama
Writing application                      : VirtualDubMod 1.5.10.3 | www.virtualdub-fr.org || (build 2550/release)
Original source form/Name                : Movie
Copyright                                : http://ironclub.tv/

Video
ID                                       : 0
Format                                   : MPEG-4 Visual
Format profile                           : Advanced Simple@L5
Format settings, BVOP                    : No
Format settings, QPel                    : No
Format settings, GMC                     : No warppoints
Format settings, Matrix                  : Custom
Codec ID                                 : XVID
Codec ID/Hint                            : XviD
Duration                                 : 1h 17mn
Bit rate                                 : 2 076 Kbps
Width                                    : 720 pixels
Height                                   : 304 pixels
Display aspect ratio                     : 2.35:1
Frame rate                               : 24.000 fps
Color space                              : YUV
Chroma subsampling                       : 4:2:0
Bit depth                                : 8 bits
Scan type                                : Progressive
Compression mode                         : Lossy
Bits/(Pixel*Frame)                       : 0.395
Stream size                              : 1.12 GiB (82%)
Writing library                          : XviD 1.2.1 (UTC 2008-12-04)

Audio
ID                                       : 1
Format                                   : AC-3
Format/Info                              : Audio Coding 3
Mode extension                           : CM (complete main)
Format settings, Endianness              : Big
Codec ID                                 : 2000
Duration                                 : 1h 17mn
Bit rate mode                            : Constant
Bit rate                                 : 448 Kbps
Channel(s)                               : 6 channels
Channel positions                        : Front: L C R, Side: L R, LFE
Sampling rate                            : 48.0 KHz
Bit depth                                : 16 bits
Compression mode                         : Lossy
Stream size                              : 247 MiB (18%)
Alignment                                : Split accross interleaves
Interleave, duration                     : 42 ms (1.00 video frame)
Interleave, preload duration             : 500 ms
Релиз группы:

picpicpic
Для увеличения картинки щелкните мышкой по превью

Этот торрент недоступен для скачивания без регистрации, однако доступен по публичной magnet-ссылке (источники с публичных трекеров). Перед использованием ссылки прочтите, пожалуйста Пользовательское соглашение, а также как можно дольше оставайтесь на раздаче! Для того, чтобы скачать сам торрент-файл (который видит больше источников), а также для того, чтобы поблагодарить релизера, вам необходимо зарегистрироваться. Если регистрироваться лень - вы можете также попробовать скачать релиз по нашим партнерским ссылкам ниже.

[underverse.su].t27789.torrent
Трекер: Зарегистрирован   [ 24.05.2013 15:48 ]  

Статус: проверено (by Чертёнок at 24.05.2013 16:36)
Поблагодарили: пока никто не поблагодарил...
Тип торрента: публичный - доступные источники с открытых трекеров: 
Размер: 1,37 GB (занимает 0,31 DVDR, для записи нужно 1 болванка DVDR/RW)
 
 

Яндекс.Метрика powered by Sphinx


В Н И М А Н И Е
Сайт не распространяет и не хранит электронные версии произведений, а лишь бесплатно и без коммерческой выгоды (не требуя взамен платы,
SMS и т.д.) предоставляет доступ к создаваемому пользователями каталогу ссылок на торрент-файлы, которые содержат только списки хеш-сумм.
Убедительная просьба с жалобами обращаться напрямую к пользователю, разместившему торрент файл.

Вверх