Loading...
Error

Кон-Тики / Kon-Tiki (Хоаким Роннинг, Эспен Сандберг) [2012 г., боевик, драма, приключения, биография, история, BDRip] Dub HQ Underverse

Статистика раздачи
Размер:  2,17 GB   |    Зарегистрирован:  4 года 1 месяц   |    Скачан:  99 раз
Сидов:  1  |  0 KB/s  ]   Личеров:  0  |  0 KB/s  ]

* - сиды/пиры с внешних источников

   
 
Автор Сообщение

HQ Underverse 

24-Май-2013 13:16

Кон-Тики / Kon-Tiki


Год выпуска: 2012
Жанр: боевик, драма, приключения, биография, история
Страна: Великобритания , Норвегия , Дания
Режиссер: Хоаким Роннинг, Эспен Сандберг
В ролях: Пал Сверре Валхейм Хэйген, Андерс Баасмо Кристиансен, Густаф Скарсгард, Одд Магнус Уильямсон, Тобиас Зантелман, Якоб Офтебро, Агнес Киттелсен, Томас Арнольд, Йорген Бертаге, Элинор Бурк, Мануэль Коши, Сэм Чэпман, Стефан Кронуолл, Катинка Эгрес, Йен Кнауэр, Оле Слетнер, Ричард Триндер
Сюжет фильма:
Это известная история о том, как норвежский путешественник Тур Хейердал в 1947 году пересёк Тихий океан от Перу до Полинезии на бальсовом плоту. Таким способом он хотел доказать свою теорию о заселении Полинезии из Южной Америки, а не из Азии, как тогда считалось.

Качество видео: BDRip

Продолжительность: 01:49:11
Формат: avi
Видео: XviD, 720x304, 2390 kbps
Аудио: русский, дублированный [лицензия], AC3 5.1, 448 kbps

Код:

General
Complete name                    : F:\Кон Тики\Kon.Tiki.2012.HDRip.XviD.AC3.Rus.D.HQ.Underverse.avi
Format                           : AVI
Format/Info                      : Audio Video Interleave
Format profile                   : OpenDML
File size                        : 2.17 GiB
Duration                         : 1h 49mn
Overall bit rate                 : 2 851 Kbps
Writing application              : VirtualDubMod 1.5.10.2 (build 2540/release)
Writing library                  : VirtualDubMod build 2540/release

Video
ID                               : 0
Format                           : MPEG-4 Visual
Format profile                   : Streaming Video@L1
Format settings, BVOP            : Yes
Format settings, QPel            : No
Format settings, GMC             : No warppoints
Format settings, Matrix          : Custom
Muxing mode                      : Packed bitstream
Codec ID                         : XVID
Codec ID/Hint                    : XviD
Duration                         : 1h 49mn
Bit rate                         : 2 390 Kbps
Width                            : 720 pixels
Height                           : 304 pixels
Display aspect ratio             : 2.35
Frame rate                       : 25.000 fps
Resolution                       : 24 bits
Colorimetry                      : 4:2:0
Scan type                        : Progressive
Bits/(Pixel*Frame)               : 0.437
Stream size                      : 1.82 GiB (84%)
Writing library                  : XviD 64

Audio
ID                               : 1
Format                           : AC-3
Format/Info                      : Audio Coding 3
Codec ID                         : 2000
Duration                         : 1h 49mn
Bit rate mode                    : Constant
Bit rate                         : 448 Kbps
Channel(s)                       : 6 channels
Channel positions                : Front: L C R, Surround: L R, LFE
Sampling rate                    : 48.0 KHz
Stream size                      : 350 MiB (16%)
Alignment                        : Split accross interleaves
Interleave, duration             : 40 ms (1.00 video frame)
Interleave, preload duration     : 500 ms

picpicpic
Для увеличения картинки щелкните мышкой по превью

Этот торрент недоступен для скачивания без регистрации, однако доступен по публичной magnet-ссылке (источники с публичных трекеров). Перед использованием ссылки прочтите, пожалуйста Пользовательское соглашение, а также как можно дольше оставайтесь на раздаче! Для того, чтобы скачать сам торрент-файл (который видит больше источников), а также для того, чтобы поблагодарить релизера, вам необходимо зарегистрироваться. Если регистрироваться лень - вы можете также попробовать скачать релиз по нашим партнерским ссылкам ниже.

[underverse.su].t27780.torrent
Трекер: Зарегистрирован   [ 24.05.2013 13:16 ]  

Статус: проверено (by HQ Underverse at 24.05.2013 13:16)
Поблагодарили: 8 человек
Тип торрента: публичный - доступные источники с открытых трекеров: 
Размер: 2,17 GB (занимает 1/2 DVDR, для записи нужно 1 болванка DVDR/RW)
 
 
Похожие темы
Форум Тема Автор Торрент Отв. Посл. сооб.
Зарубежное кино [DVDRip, Low-Res HDRip, и т.д.] Кон-Тики / Kon-Tiki (Хоаким Роннинг, Эспен Сандберг) [2012 г., боевик, драма, приключения, биография, история, HDRip] AVO (А.Карповский) + Nor 90ytr90
1 | 0

0 | 8747

68

20.12.2012 20:11

Зарубежное кино [DVDRip, Low-Res HDRip, и т.д.] Кон-Тики / Kon-Tiki (Хоаким Роннинг, Эспен Сандберг) [2012 г., боевик, драма, приключения, биография, история, HDRip] AVO (Карповский) 90ytr90
13 | 0

0 | 7770

45

21.12.2012 07:33

Зарубежное кино [DVDRip, Low-Res HDRip, и т.д.] Кон-Тики / Kon-Tiki (Хоаким Роннинг / Joachim Roenning, Эспен Сандберг / Espen Sandberg) [2012 г., боевик, драма, приключения, биография, история, HDRip] Dub TERRAN
5 | 0

0 | 864

52

24.05.2013 18:40

Зарубежное кино [DVDRip, Low-Res HDRip, и т.д.] Кон-Тики / Kon-Tiki (Хоаким Роннинг, Эспен Сандберг) [2012 г., Приключения, Биография, История, BDRip-AVC] Dub (RUS, Лицензия) Ведьмочка
6 | 0

0 | 254

9

31.01.2015 22:03

Зарубежное кино [DVDRip, Low-Res HDRip, и т.д.] Кон-Тики / Kon-Tiki (Хоаким Роннинг, Эспен Сандберг) [2012 г., боевик, драма, приключения, биография, история, BDRip] AVO (Карповский) 90ytr90
0 | 0

0 | 523

5

22.02.2015 08:14

Другие фильмы Кон-Тики / Kon-Tiki (Тур Хейердал) [1949 г., документальный, приключения, DVDRip] VO ARI71
2 | 0

1 | 393

1

15.07.2017 08:02

Зарубежное кино [HDDVDRip / BDRip / WEB-DL / HDTV 1080/720р] Кон-Тики / Kon-Tiki (Хоаким Роннинг, Эспен Сандберг) [2012 г., боевик, драма, приключения, биография, история, BDRip 720p] AVO (А.Карповский) + Nor 90ytr90
0 | 0

0 | 7735

21

21.12.2012 10:42

Зарубежное кино [HDDVDRip / BDRip / WEB-DL / HDTV 1080/720р] Кон-Тики / Kon-Tiki (Хоаким Роннинг, Эспен Сандберг) [2012 г., боевик, драма, приключения, биография, история, BDRip 1080p] Dub 90ytr90
3 | 0

0 | 579

9

22.02.2015 08:34


Яндекс.Метрика powered by Sphinx


В Н И М А Н И Е
Сайт не распространяет и не хранит электронные версии произведений, а лишь бесплатно и без коммерческой выгоды (не требуя взамен платы,
SMS и т.д.) предоставляет доступ к создаваемому пользователями каталогу ссылок на торрент-файлы, которые содержат только списки хеш-сумм.
Убедительная просьба с жалобами обращаться напрямую к пользователю, разместившему торрент файл.

Вверх