Loading...
Error

Знакомьтесь, артист Грибов. [2002 г., документальный, биография., TVRip]

Статистика раздачи
Размер:  600 MB   |    Зарегистрирован:  3 года 6 месяцев   |    Скачан:  5 раз

Полного источника не было: 2 года 9 месяцев

Сидов:  0  |  0 KB/s  ]   Личеров:  0  |  0 KB/s  ]

* - сиды/пиры с внешних источников

   
 
Автор Сообщение

матроскин Пол:Муж

24-Май-2013 07:02

Знакомьтесь, артист Грибов.


Год выпуска: 2002
Жанр: документальный, биография.
Страна: Россия
Режиссер: Наталья Левыкина
Выпущено: Студия "Континент"
Сюжет фильма:
"Милый мой, хороший, любимый, дорогой, счастлива, что хоть на сцене была Вашей женой", — писала ему Фаина Раневская...О великом, единственном и неповторимом Алексее Николаевиче Грибове (1902-1977) рассказывают его жена, Наталья Грибова, его дневники и домашний киноархив, но его истинный портрет был бы не завершенным без его ролей. Вы увидите фрагменты из спектаклей и кинофильмов: "Село Степанчиково и его обитатели", "На дне", "Без вины виноватые", "Горячее сердце", "Свадьба", "Мертвые души", "Гуттаперчивый мальчик", "Ревизор", "Верные друзья", "Шведская спичка", "Поженились старик со старухой", "Начальник Чукотки", "Вишневый сад", "Соло для часов с боем", "Три сестры".
Качество видео: TVRip

Продолжительность: 00:55:15
Формат: avi
Видео: XviD, 640x480, 1381 kbps
Аудио: русский, оригинал, MP3 2.0, 128 kbps

Код:

General
Complete name                    : C:\Users\Security\Desktop\Знакомьтесь, артист Грибов.avi
Format                           : AVI
Format/Info                      : Audio Video Interleave
File size                        : 600 MiB
Duration                         : 55mn 15s
Overall bit rate                 : 1 519 Kbps
Writing application              : VirtualDubMod 1.5.10.3 | www.virtualdub-fr.org || (build 2550/release)
Writing library                  : VirtualDubMod build 2550/release

Video
ID                               : 0
Format                           : MPEG-4 Visual
Format profile                   : Streaming Video@L1
Format settings, BVOP            : Yes
Format settings, QPel            : No
Format settings, GMC             : No warppoints
Format settings, Matrix          : Default (MPEG)
Codec ID                         : XVID
Codec ID/Hint                    : XviD
Duration                         : 55mn 15s
Bit rate                         : 1 382 Kbps
Width                            : 640 pixels
Height                           : 480 pixels
Display aspect ratio             : 4/3
Frame rate                       : 25.000 fps
Resolution                       : 24 bits
Colorimetry                      : 4:2:0
Scan type                        : Progressive
Bits/(Pixel*Frame)               : 0.180
Stream size                      : 546 MiB (91%)
Writing library                  : XviD 1.2.1 (UTC 2008-12-04)

Audio
ID                               : 1
Format                           : MPEG Audio
Format version                   : Version 1
Format profile                   : Layer 3
Codec ID                         : 55
Codec ID/Hint                    : MP3
Duration                         : 55mn 15s
Bit rate mode                    : Constant
Bit rate                         : 128 Kbps
Channel(s)                       : 2 channels
Sampling rate                    : 48.0 KHz
Resolution                       : 16 bits
Stream size                      : 50.6 MiB (8%)
Alignment                        : Aligned on interleaves
Interleave, duration             : 40 ms (1.00 video frame)
Interleave, preload duration     : 504 ms
Writing library                  : LAME3.99r
Encoding settings                : -m s -V 4 -q 2 -lowpass 17 -b 128

picpicpicpicpicpic
Для увеличения картинки щелкните мышкой по превью

Этот торрент недоступен для скачивания без регистрации, однако доступен по публичной magnet-ссылке (источники с публичных трекеров). Перед использованием ссылки прочтите, пожалуйста Пользовательское соглашение, а также как можно дольше оставайтесь на раздаче! Для того, чтобы скачать сам торрент-файл (который видит больше источников), а также для того, чтобы поблагодарить релизера, вам необходимо зарегистрироваться. Если регистрироваться лень - вы можете также попробовать скачать релиз по нашим партнерским ссылкам ниже.

[underverse.su].t27768.torrent
Трекер: Зарегистрирован   [ 24.05.2013 07:02 ]  

Статус: проверено (by матроскин at 24.05.2013 07:03)
Поблагодарили: 1 человек
Тип торрента: публичный - доступные источники с открытых трекеров: 
Размер: 600 MB (занимает 0,13 DVDR, для записи нужно 1 болванка DVDR/RW)
 
 
Похожие темы
Форум Тема Автор Торрент Отв. Посл. сооб.
Зарубежное кино [DVDRip, Low-Res HDRip, и т.д.] Знакомьтесь, Джо Блэк / Meet Joe Black (Мартин Брест) [1998 г., фэнтези, мелодрама, драма, детектив, BDRip] Dub + Sub (Rus, Eng) floatrx
18 | 1

2 | 1074

7

01.02.2014 13:39

Зарубежное кино [DVDRip, Low-Res HDRip, и т.д.] Знакомьтесь, Джо Блэк / Meet Joe Black (Мартин Брест / Martin Brest) [1998 г., фэнтези, драма, мелодрама, HDRip] Dub 90ytr90
152 | 2

0 | 651

6

19.03.2016 19:57

Зарубежное кино [DVDRip, Low-Res HDRip, и т.д.] Знакомьтесь, Джо Блэк / Meet Joe Black (Мартин Брест / Martin Brest) [1998 г., фэнтези, драма, мелодрама, BDRip] Dub + MVO + Original (Eng) + Sub (Rus, Eng) 90ytr90
11 | 0

0 | 692

4

19.03.2016 20:36

Зарубежное кино [DVDRip, Low-Res HDRip, и т.д.] Знакомьтесь, Джо Блэк / Meet Joe Black (Мартин Брест / Martin Brest) [1998 г., фэнтези, драма, мелодрама, BDRip-AVC] Dub 90ytr90
0 | 0

0 | 684

3

19.03.2016 21:15

Зарубежное кино [DVDRip, Low-Res HDRip, и т.д.] Знакомьтесь, семейка Блэков / Meet the Blacks (Деон Тейлор) [2016 г., комедия, триллер, BDRip] DVO makkol
294 | 12

0 | 1142

13

28.07.2016 13:43

Зарубежное кино [HDDVDRip / BDRip / WEB-DL / HDTV 1080/720р] Знакомьтесь, семейка Блэков / Meet the Blacks (Деон Тейлор) [2016 г., комедия, триллер, BDRip 720p] DVO makkol
39 | 3

0 | 1149

8

28.07.2016 13:53

матроскин Пол:Муж

24-Май-2013 07:05


Яндекс.Метрика powered by Sphinx


В Н И М А Н И Е
Сайт не распространяет и не хранит электронные версии произведений, а лишь бесплатно и без коммерческой выгоды (не требуя взамен платы,
SMS и т.д.) предоставляет доступ к создаваемому пользователями каталогу ссылок на торрент-файлы, которые содержат только списки хеш-сумм.
Убедительная просьба с жалобами обращаться напрямую к пользователю, разместившему торрент файл.

Вверх