Loading...
Error

Всегда ваш - Андрей Миронов. [2007 г., биография, документальный, TVRip]

Статистика раздачи
Размер:  571 MB   |    Зарегистрирован:  3 года 6 месяцев   |    Скачан:  8 раз

Полного источника не было: 1 месяц 6 дней

Сидов:  0  |  0 KB/s  ]   Личеров:  0  |  0 KB/s  ]

* - сиды/пиры с внешних источников

   
 
Автор Сообщение

матроскин Пол:Муж

24-Май-2013 06:10

Всегда ваш - Андрей Миронов.


Год выпуска: 2007
Жанр: биография, документальный
Страна: Россия
Выпущено: Продюсерский центр "Хорошо продакшн"
Сюжет фильма:
Фильм о жизни и творчестве Андрея Александровича Миронова. "Мы хотели показать Андрюшу таким, каким он был, акцентируя внимание на малоизвестных страницах его творческой биографии", - пояснила Голубкина. Так, в фильм вошли фрагменты из ранних киноработ Миронова. В их числе роли в картинах "Таинственная стена", "Год как жизнь", "Особых примет нет". Среди них выделяется лента "Назначение" - в ней Андрей Миронов единственных раз играет вместе со своей матерью - популярной актрисой Марией Владимировной Мироновой. По словам Ларисы Голубкиной, вдовы А.Миронова, в кадре появятся и любимые друзья актера - дирижер Юрий Темирканов, режиссер Марк Захаров, актеры Александр Ширвиндт и Лев Дуров, прозвучит и последнее интервью недавно ушедшего театрального художника Олега Шейнциса. Комментировать фильм будет сам Андрей Миронов. "Как не странно, он мало давал интервью, но нам удалось по крупицам собрать в едино его немногочисленные выступления на телевидении и составить закадровый текст", - сказала Голубкина.
Качество видео: TVRip

Продолжительность: 00:52:08
Формат: avi
Видео: XviD, 640x480, 1393 kbps
Аудио: русский, оригинал, MP3 2.0, 128 kbps

Код:

General
Complete name                    : C:\Users\Security\Desktop\Всегда ваш.Андрей Миронов.avi
Format                           : AVI
Format/Info                      : Audio Video Interleave
File size                        : 571 MiB
Duration                         : 52mn 8s
Overall bit rate                 : 1 532 Kbps
Writing application              : VirtualDubMod 1.5.10.3 | www.virtualdub-fr.org || (build 2550/release)
Writing library                  : VirtualDubMod build 2550/release

Video
ID                               : 0
Format                           : MPEG-4 Visual
Format profile                   : Streaming Video@L1
Format settings, BVOP            : Yes
Format settings, QPel            : No
Format settings, GMC             : No warppoints
Format settings, Matrix          : Default (MPEG)
Codec ID                         : XVID
Codec ID/Hint                    : XviD
Duration                         : 52mn 8s
Bit rate                         : 1 394 Kbps
Width                            : 640 pixels
Height                           : 480 pixels
Display aspect ratio             : 4/3
Frame rate                       : 25.000 fps
Resolution                       : 24 bits
Colorimetry                      : 4:2:0
Scan type                        : Progressive
Bits/(Pixel*Frame)               : 0.181
Stream size                      : 520 MiB (91%)
Writing library                  : XviD 1.2.1 (UTC 2008-12-04)

Audio
ID                               : 1
Format                           : MPEG Audio
Format version                   : Version 1
Format profile                   : Layer 3
Codec ID                         : 55
Codec ID/Hint                    : MP3
Duration                         : 52mn 8s
Bit rate mode                    : Constant
Bit rate                         : 128 Kbps
Channel(s)                       : 2 channels
Sampling rate                    : 48.0 KHz
Resolution                       : 16 bits
Stream size                      : 47.7 MiB (8%)
Alignment                        : Aligned on interleaves
Interleave, duration             : 40 ms (1.00 video frame)
Interleave, preload duration     : 504 ms
Writing library                  : LAME3.99r
Encoding settings                : -m s -V 4 -q 2 -lowpass 17 -b 128

picpicpicpicpicpic
Для увеличения картинки щелкните мышкой по превью

Этот торрент недоступен для скачивания без регистрации, однако доступен по публичной magnet-ссылке (источники с публичных трекеров). Перед использованием ссылки прочтите, пожалуйста Пользовательское соглашение, а также как можно дольше оставайтесь на раздаче! Для того, чтобы скачать сам торрент-файл (который видит больше источников), а также для того, чтобы поблагодарить релизера, вам необходимо зарегистрироваться. Если регистрироваться лень - вы можете также попробовать скачать релиз по нашим партнерским ссылкам ниже.

[underverse.su].t27766.torrent
Трекер: Зарегистрирован   [ 24.05.2013 06:10 ]  

Статус: проверено (by матроскин at 24.05.2013 06:12)
Поблагодарили: 2 человека
Тип торрента: публичный - доступные источники с открытых трекеров: 
Размер: 571 MB (занимает 0,13 DVDR, для записи нужно 1 болванка DVDR/RW)
 
 

матроскин Пол:Муж

24-Май-2013 06:13


Яндекс.Метрика powered by Sphinx


В Н И М А Н И Е
Сайт не распространяет и не хранит электронные версии произведений, а лишь бесплатно и без коммерческой выгоды (не требуя взамен платы,
SMS и т.д.) предоставляет доступ к создаваемому пользователями каталогу ссылок на торрент-файлы, которые содержат только списки хеш-сумм.
Убедительная просьба с жалобами обращаться напрямую к пользователю, разместившему торрент файл.

Вверх