Loading...
Error

Полигон. Крупный калибр. [2013 г., документальный , TVRip]

Статистика раздачи
Размер:  346 MB   |    Зарегистрирован:  3 года 6 месяцев   |    Скачан:  20 раз

Полного источника не было: 9 месяцев

Сидов:  0  |  0 KB/s  ]   Личеров:  0  |  0 KB/s  ]

* - сиды/пиры с внешних источников

   
 
Автор Сообщение

матроскин Пол:Муж

24-Май-2013 05:56

Полигон. Крупный калибр.


Год выпуска: 2013
Жанр: документальный
Страна: Россия
Ведущие: Иван Лебедев, Дмитрий Задорожный
Выпущено: Телеканал Россия-2
Сюжет фильма:
В этом фильме: Иван Лебедев выбирает идеальное оружие для размещения на блокпостах. В качестве трех основных видов стрелкового вооружения крупного калибра выбраны пулемет и снайперская винтовка "Корд" калибра 12,7 мм, а также лучший в мире противопехотный гранатомет АГС-30. Многочисленные эксперименты с оружием не дадут вам заскучать!
Качество видео: TVRip

Продолжительность: 00:25:00
Формат: avi
Видео: XviD, 711x400, 1796 kbps
Аудио: русский, оригинал, MP3 2.0, 128 kbps

Код:

General
Complete name                    : C:\Users\Security\Desktop\Полигон Калибр.avi
Format                           : AVI
Format/Info                      : Audio Video Interleave
File size                        : 346 MiB
Duration                         : 25mn 0s
Overall bit rate                 : 1 934 Kbps
Writing library                  : VirtualDub build 32706/release

Video
ID                               : 0
Format                           : MPEG-4 Visual
Format profile                   : Streaming Video@L1
Format settings, BVOP            : Yes
Format settings, QPel            : No
Format settings, GMC             : No warppoints
Format settings, Matrix          : Default (MPEG)
Muxing mode                      : Packed bitstream
Codec ID                         : XVID
Codec ID/Hint                    : XviD
Duration                         : 25mn 0s
Bit rate                         : 1 796 Kbps
Width                            : 711 pixels
Height                           : 400 pixels
Display aspect ratio             : 16/9
Frame rate                       : 25.000 fps
Resolution                       : 24 bits
Colorimetry                      : 4:2:0
Scan type                        : Progressive
Bits/(Pixel*Frame)               : 0.255
Stream size                      : 321 MiB (93%)
Writing library                  : XviD 64

Audio
ID                               : 1
Format                           : MPEG Audio
Format version                   : Version 1
Format profile                   : Layer 3
Codec ID                         : 55
Codec ID/Hint                    : MP3
Duration                         : 25mn 0s
Bit rate mode                    : Constant
Bit rate                         : 128 Kbps
Channel(s)                       : 2 channels
Sampling rate                    : 48.0 KHz
Resolution                       : 16 bits
Stream size                      : 22.9 MiB (7%)
Alignment                        : Split accross interleaves
Interleave, duration             : 40 ms (1.00 video frame)
Interleave, preload duration     : 500 ms

picpicpicpicpicpic
Для увеличения картинки щелкните мышкой по превью

Этот торрент недоступен для скачивания без регистрации, однако доступен по публичной magnet-ссылке (источники с публичных трекеров). Перед использованием ссылки прочтите, пожалуйста Пользовательское соглашение, а также как можно дольше оставайтесь на раздаче! Для того, чтобы скачать сам торрент-файл (который видит больше источников), а также для того, чтобы поблагодарить релизера, вам необходимо зарегистрироваться. Если регистрироваться лень - вы можете также попробовать скачать релиз по нашим партнерским ссылкам ниже.

[underverse.su].t27765.torrent
Трекер: Зарегистрирован   [ 24.05.2013 05:56 ]  

Статус: проверено (by матроскин at 24.05.2013 05:57)
Поблагодарили: 2 человека
Тип торрента: публичный - доступные источники с открытых трекеров: 
Размер: 346 MB (занимает 0,08 DVDR, для записи нужно 1 болванка DVDR/RW)
 
 

матроскин Пол:Муж

24-Май-2013 05:58


Яндекс.Метрика powered by Sphinx


В Н И М А Н И Е
Сайт не распространяет и не хранит электронные версии произведений, а лишь бесплатно и без коммерческой выгоды (не требуя взамен платы,
SMS и т.д.) предоставляет доступ к создаваемому пользователями каталогу ссылок на торрент-файлы, которые содержат только списки хеш-сумм.
Убедительная просьба с жалобами обращаться напрямую к пользователю, разместившему торрент файл.

Вверх