Loading...
Error

Ганнибал / Hannibal / Сезон 1 (1 - 8 Серии) (Питер Медак, Гильермо Наварро, Майкл Раймер) [2012 г., Сериал, Детектив, Драма, Адреналин, Повод задуматься, Криминал, Для всех, Интрига, HDTVRip] MVO

Статистика раздачи
Размер:  4,17 GB   |    Зарегистрирован:  3 года 6 месяцев   |    Скачан:  13 раз

Полного источника не было: 2 года 7 месяцев

Сидов:  0  |  0 KB/s  ]   Личеров:  0  |  0 KB/s  ]

* - сиды/пиры с внешних источников

   
 
Автор Сообщение

tom.jerry Пол:Муж

21-Май-2013 12:57

Ганнибал / Hannibal / Сезон 1 (1 - 8 Серии)


Год выпуска: 2012
Жанр: Сериал, Детектив, Драма, Адреналин, Повод задуматься, Криминал, Для всех, Интрига
Страна: США
Режиссер: Питер Медак, Гильермо Наварро, Майкл Раймер
В ролях: Мадс Миккельсен, Хью Дэнси, Каролин Давернас, Лара Жан Чоростецки, Аарон Абрамс, Лоренс Фишбёрн, Эттьенн Парк, Скотт Томпсон, Торианна Ли, Демор Барнс
Сюжет фильма:
Уилл Грэхэм — одаренный профайлер, который вместе с ФБР разыскивает серийного убийцу. Уникальный способ мышления Грэма дает ему удивительную способность глубоко проникаться чувствами другого человека, даже психопата. Он может понять, что ими движет. Но когда ум преследуемого убийцы оказывается слишком сложным, он прибегает к помощи доктора Лектера, одного из ведущих психиатрических умов в стране.
Качество видео: HDTVRip

Продолжительность: 00:43:08
Формат: avi
Видео: XviD, 720x400, 1351 kbps
Аудио #1: русский, многоголосый закадровый [профессиональный], MP3 2.0, 128 kbps

Код:

General
Complete name                    : D:\торрент\hannibal\hannibal_s01e01.avi
Format                           : AVI
Format/Info                      : Audio Video Interleave
File size                        : 500 MiB
Duration                         : 43mn 8s
Overall bit rate                 : 1 621 Kbps
Movie name                       : Hannibal 1x01 Aperitif @ AlexFilm
Writing application              : VirtualDubMod 1.5.10.2 (build 2542/release)
Writing library                  : VirtualDubMod build 2542/release

Video
ID                               : 0
Format                           : MPEG-4 Visual
Format profile                   : Streaming Video@L1
Format settings, BVOP            : Yes
Format settings, QPel            : No
Format settings, GMC             : No warppoints
Format settings, Matrix          : Default (MPEG)
Codec ID                         : XVID
Codec ID/Hint                    : XviD
Duration                         : 43mn 8s
Bit rate                         : 1 351 Kbps
Width                            : 720 pixels
Height                           : 400 pixels
Display aspect ratio             : 16/9
Frame rate                       : 23.976 fps
Resolution                       : 24 bits
Colorimetry                      : 4:2:0
Scan type                        : Progressive
Bits/(Pixel*Frame)               : 0.196
Stream size                      : 417 MiB (83%)
Writing library                  : XviD 1.2.1 (UTC 2008-12-04)

Audio #1
ID                               : 1
Format                           : MPEG Audio
Format version                   : Version 1
Format profile                   : Layer 3
Codec ID                         : 55
Codec ID/Hint                    : MP3
Duration                         : 43mn 8s
Bit rate mode                    : Constant
Bit rate                         : 128 Kbps
Channel(s)                       : 2 channels
Sampling rate                    : 48.0 KHz
Resolution                       : 16 bits
Stream size                      : 39.5 MiB (8%)
Alignment                        : Aligned on interleaves
Interleave, duration             : 42 ms (1.00 video frame)
Interleave, preload duration     : 504 ms
Title                            : Russian (AlexFilm)

Audio #2
ID                               : 2
Format                           : MPEG Audio
Format version                   : Version 1
Format profile                   : Layer 3
Codec ID                         : 55
Codec ID/Hint                    : MP3
Duration                         : 43mn 8s
Bit rate mode                    : Constant
Bit rate                         : 128 Kbps
Channel(s)                       : 2 channels
Sampling rate                    : 48.0 KHz
Resolution                       : 16 bits
Stream size                      : 39.5 MiB (8%)
Alignment                        : Aligned on interleaves
Interleave, duration             : 42 ms (1.00 video frame)
Interleave, preload duration     : 504 ms
Title                            : English

picpicpic
Для увеличения картинки щелкните мышкой по превью

Этот торрент недоступен для скачивания без регистрации, однако доступен по публичной magnet-ссылке (источники с публичных трекеров). Перед использованием ссылки прочтите, пожалуйста Пользовательское соглашение, а также как можно дольше оставайтесь на раздаче! Для того, чтобы скачать сам торрент-файл (который видит больше источников), а также для того, чтобы поблагодарить релизера, вам необходимо зарегистрироваться. Если регистрироваться лень - вы можете также попробовать скачать релиз по нашим партнерским ссылкам ниже.

[underverse.su].t27686.torrent
Трекер: Зарегистрирован   [ 21.05.2013 12:57 ]  

Статус: проверено (by Печаль'ka at 21.05.2013 14:44)
Поблагодарили: 3 человека
Тип торрента: публичный - доступные источники с открытых трекеров: 
Размер: 4,17 GB (занимает 0,95 DVDR, для записи нужно 1 болванка DVDR/RW)
 
 
Похожие темы
Форум Тема Автор Торрент Отв. Посл. сооб.
Зарубежные сериалы Ганнибал / Hannibal / Сезон 1 / Серии 1-13 (13) (Гильермо Наварро, Майкл Раймер, Дэвид Слэйд) [2013 г., Детектив, криминал, драма, WEBDLRip-AVC] MVO + Original Чертёнок
0 | 0

3 | 628

30

05.08.2013 19:10

Зарубежные сериалы Ганнибал / Hannibal / Сезон 3 (1-13 серии из 13) (Майкл Раймер, Гильермо Наварро, Винченцо Натали) [2015 г., детектив, триллер, криминал, драма, WEB-DLRip] DVO + Original older
12 | 6

3 | 820

10

03.09.2015 08:02

Зарубежные сериалы [BD / Remux / BDRip / WEB-DL / HDTV 1080/720р] Ганнибал / Hannibal / Сезон: 2 / Серии: 1-13 из 13 (Гильермо Наварро, Майкл Раймер, Дэвид Слэйд) [2014, детектив, криминал, драма, WEB-DL 1080p] MVO (AlexFilm) uzi2009
3 | 0

0 | 1012

6

27.05.2014 11:11


Яндекс.Метрика powered by Sphinx


В Н И М А Н И Е
Сайт не распространяет и не хранит электронные версии произведений, а лишь бесплатно и без коммерческой выгоды (не требуя взамен платы,
SMS и т.д.) предоставляет доступ к создаваемому пользователями каталогу ссылок на торрент-файлы, которые содержат только списки хеш-сумм.
Убедительная просьба с жалобами обращаться напрямую к пользователю, разместившему торрент файл.

Вверх