Loading...
Error

Демоны Да Винчи / Da Vinci's Demons / Сезон 1 (1-6 Серии) (Майкл Дж. Бассетт, Дэвид С. Гойер, Джэми Пэйн) [2013 г., Сериал, Приключения, Драма, Повод задуматься, Историческое, Знаменитости, Интрига, HDTVRip] MVO + Original

Статистика раздачи
Размер:  3,9 GB   |    Зарегистрирован:  3 года 6 месяцев   |    Скачан:  18 раз

Полного источника не было: 2 года 6 месяцев

Сидов:  0  |  0 KB/s  ]   Личеров:  0  |  0 KB/s  ]

* - сиды/пиры с внешних источников

   
 
Автор Сообщение

tom.jerry Пол:Муж

21-Май-2013 12:50

Демоны Да Винчи / Da Vinci's Demons / Сезон 1 (1-6 Серии)


Год выпуска: 2013
Жанр: Сериал, Приключения, Драма, Повод задуматься, Историческое, Знаменитости, Интрига
Страна: США
Режиссер: Майкл Дж. Бассетт, Дэвид С. Гойер, Джэми Пэйн
В ролях: Том Райли, Лаура Хэддок, Йен Пири, Эрос Влахос, Грегг Чиллин, Лара Пулвер, Том Бейтман, Гера Хилмарсдоттир, Эллиот Леви, Росс О'Хеннесси
Сюжет фильма:
В мире, где мысль и вера находятся под контролем, один человек борется за то, чтобы сделать знания доступными для всех.

Не рассказанная история трагичной жизни Леонардо Да Винчи раскрывает портрет молодого человека, которого мучает дар гения. Он — еретик, жаждущий раскрыть ложь религии. Бунтарь, стремящийся низвергнуть элитарное общество. Незаконнорожденный сын, требующий от своего отца признания его прав.

Он оказывается посреди разразившегося урагана страстей, который спал веками. Внутри конфликта между правдой и ложью, религией и интеллектом, прошлым и будущим. Его стремления используются против него противоборствующими силами того времени, вовлекая его в соблазнительную игру, в которой те, кто презирает его ум, нуждаются в нём больше всего.
Качество видео: HDTVRip

Продолжительность: 00:59:11
Формат: avi
Видео: XviD, 720x400, 1314 kbps
Аудио #1: русский, многоголосый закадровый [профессиональный], MP3 2.0, 128 kbps
Аудио #2: английский, оригинал [профессиональный], MP3 2.0, 128 kbps

Код:

General
Complete name                    : D:\торрент\Демоны\da_vinci_s_demons_s01e01.avi
Format                           : AVI
Format/Info                      : Audio Video Interleave
File size                        : 671 MiB
Duration                         : 59mn 11s
Overall bit rate                 : 1 584 Kbps
Movie name                       : Da Vinci's Demons 1x01 The Hanged Man @ AlexFilm
Writing application              : VirtualDubMod 1.5.10.2 (build 2542/release)

Video
ID                               : 0
Format                           : MPEG-4 Visual
Format profile                   : Streaming Video@L1
Format settings, BVOP            : Yes
Format settings, QPel            : No
Format settings, GMC             : No warppoints
Format settings, Matrix          : Default (MPEG)
Codec ID                         : XVID
Codec ID/Hint                    : XviD
Duration                         : 59mn 11s
Bit rate                         : 1 314 Kbps
Width                            : 720 pixels
Height                           : 400 pixels
Display aspect ratio             : 16/9
Frame rate                       : 23.976 fps
Resolution                       : 24 bits
Colorimetry                      : 4:2:0
Scan type                        : Progressive
Bits/(Pixel*Frame)               : 0.190
Stream size                      : 557 MiB (83%)
Writing library                  : XviD 1.2.1 (UTC 2008-12-04)

Audio #1
ID                               : 1
Format                           : MPEG Audio
Format version                   : Version 1
Format profile                   : Layer 3
Codec ID                         : 55
Codec ID/Hint                    : MP3
Duration                         : 59mn 11s
Bit rate mode                    : Constant
Bit rate                         : 128 Kbps
Channel(s)                       : 2 channels
Sampling rate                    : 48.0 KHz
Resolution                       : 16 bits
Stream size                      : 54.2 MiB (8%)
Alignment                        : Aligned on interleaves
Interleave, duration             : 42 ms (1.00 video frame)
Interleave, preload duration     : 504 ms
Title                            : Russian (AlexFilm)

Audio #2
ID                               : 2
Format                           : MPEG Audio
Format version                   : Version 1
Format profile                   : Layer 3
Codec ID                         : 55
Codec ID/Hint                    : MP3
Duration                         : 59mn 11s
Bit rate mode                    : Constant
Bit rate                         : 128 Kbps
Channel(s)                       : 2 channels
Sampling rate                    : 48.0 KHz
Resolution                       : 16 bits
Stream size                      : 54.2 MiB (8%)
Alignment                        : Aligned on interleaves
Interleave, duration             : 42 ms (1.00 video frame)
Interleave, preload duration     : 504 ms
Title                            : English

picpicpic
Для увеличения картинки щелкните мышкой по превью

Этот торрент недоступен для скачивания без регистрации, однако доступен по публичной magnet-ссылке (источники с публичных трекеров). Перед использованием ссылки прочтите, пожалуйста Пользовательское соглашение, а также как можно дольше оставайтесь на раздаче! Для того, чтобы скачать сам торрент-файл (который видит больше источников), а также для того, чтобы поблагодарить релизера, вам необходимо зарегистрироваться. Если регистрироваться лень - вы можете также попробовать скачать релиз по нашим партнерским ссылкам ниже.

[underverse.su].t27685.torrent
Трекер: Зарегистрирован   [ 21.05.2013 12:50 ]  

Статус: проверено (by Печаль'ka at 21.05.2013 14:48)
Поблагодарили: 1 человек
Тип торрента: публичный - доступные источники с открытых трекеров: 
Размер: 3,9 GB (занимает 0,89 DVDR, для записи нужно 1 болванка DVDR/RW)
 
 
Похожие темы
Форум Тема Автор Торрент Отв. Посл. сооб.
Зарубежные сериалы Демоны да Винчи / Da Vinci's Demons [сезон 2 / серии 01-10 (10)] (Майкл Дж. Бассетт, Дэвид С. Гойер, Джэми Пэйн) [2014 г., драма, приключения, HDTVRip] MVO (LostFilm) 90ytr90
2 | 0

0 | 1839

27

07.04.2014 19:17

Зарубежные сериалы [BD / Remux / BDRip / WEB-DL / HDTV 1080/720р] Демоны Да Винчи / Da Vinci`s Demons / Сезон 1 / Серии 1-8 (8) (Майкл Дж. Бассетт, Дэвид С. Гойер, Джэми Пэйн) [2013 г., драма, приключения, WEB-DL 720p] DVO + MVO Чертёнок
3 | 3

0 | 1004

15

09.06.2013 13:06


Яндекс.Метрика powered by Sphinx


В Н И М А Н И Е
Сайт не распространяет и не хранит электронные версии произведений, а лишь бесплатно и без коммерческой выгоды (не требуя взамен платы,
SMS и т.д.) предоставляет доступ к создаваемому пользователями каталогу ссылок на торрент-файлы, которые содержат только списки хеш-сумм.
Убедительная просьба с жалобами обращаться напрямую к пользователю, разместившему торрент файл.

Вверх