Loading...
Error

Таймлесс. Рубиновая книга / Rubinrot (Феликс Фуксштайнер / Felix Fuchssteiner) [2013 г., фантастика, фэнтези, приключения, BDRip] Dub

Статистика раздачи
Размер:  1,46 GB   |    Зарегистрирован:  4 года 4 месяца   |    Скачан:  209 раз

Полного источника не было: 7 месяцев

Сидов:  0  |  0 KB/s  ]   Личеров:  0  |  0 KB/s  ]

* - сиды/пиры с внешних источников

   
 
Автор Сообщение

RG NewCinema 

21-Май-2013 07:46

Таймлесс. Рубиновая книга / Rubinrot


Страна: Германия / Geissendorfer Film- und Fernsehproduktion (GFF)...
Жанр: фантастика, фэнтези, приключения
Год выпуска: 2013
Продолжительность: 02:01:11
Перевод: Профессиональный (дублированный)
Оригинальная аудиодорожка: нет
Субтитры: нет

Режиссер: Феликс Фуксштайнер / Felix Fuchssteiner

В ролях: Мария Эрих, Яннис Нивёнер, Вероника Феррес, Уве Коккиш, Катарина Тальбах, Готфрид Йон, Герлинде Локкер, Рюдигер Фоглер, Флориан Бартоломай, Дженнифер Лотси...

Роли дублировали: Наталья Терешкова, Сергей Смирнов, Елена Харитонова, Михаил Бескаравайный, Ирина Гришина...

Описание: Живущая в Лондоне шестнадцатилетняя Гвендолин Шеферд случайно узнает, что обладает уникальным геном путешественника во времени, который унаследовала от прапрабабушки. Теперь девушка может ежедневно переноситься в прошлое, и с каждым днем загадок становится все больше. Что такое «Тайна Двенадцати»? Кто охотится на путешественников во времени в прошлом? И почему все вокруг думают, что она обладает какой-то «магией ворона»?

Сэмпл

Качество: BDRip (Blu-ray 1080p)
Формат: AVI

Видео: 720x304 (2.35:1), 24.000 fps, XviD ~ 1265 kbps avg, 0.241 bit/pixel
Аудио: 48 kHz, AC3 6 ch, 448 kbps, русский
Общее
Полное имя : Rubinovaya.kniga.2013.D.BDRip_[Youtracker]_by_avproh.avi
Формат : AVI
Формат/Информация : Audio Video Interleave
Размер файла : 1,46 Гбайт
Продолжительность : 2 ч. 1 м.
Общий поток : 1723 Кбит/сек
Программа кодирования : VirtualDubModRus 1.5.10.2 (build 2542/release)
Библиотека кодирования : VirtualDubMod build 2542/release

Видео
Идентификатор : 0
Формат : MPEG-4 Visual
Профиль формата : Advanced Simple@L5
Параметр BVOP формата : 1
Параметр QPel формата : Нет
Параметр GMC формата : Без точки перехода
Параметр матрицы формата : Выборочная
Идентификатор кодека : XVID
Идентификатор кодека/Подсказка : XviD
Продолжительность : 2 ч. 1 м.
Битрейт : 1265 Кбит/сек
Ширина : 720 пикселей
Высота : 304 пикселя
Соотношение сторон : 2,35:1
Частота кадров : 24,000 кадра/сек
Цветовое пространство : YUV
Субдискретизация насыщенности : 4:2:0
Битовая глубина : 8 бит
Тип развёртки : Прогрессивная
Метод сжатия : С потерями
Бит/(Пиксели*Кадры) : 0.241
Размер потока : 1,07 Гбайт (73%)
Библиотека кодирования : XviD 65

Аудио
Идентификатор : 1
Формат : AC-3
Формат/Информация : Audio Coding 3
Расширение режима : CM (complete main)
Параметр Endianness формата : Big
Идентификатор кодека : 2000
Продолжительность : 2 ч. 1 м.
Вид битрейта : Постоянный
Битрейт : 448 Кбит/сек
Каналы : 6 каналов
Расположение каналов : Front: L C R, Side: L R, LFE
Частота : 48,0 КГц
Битовая глубина : 16 бит
Метод сжатия : С потерями
Размер потока : 388 Мбайт (26%)
Выравнивание : Разделение по промежуткам
Продолжительность промежутка : 42 мс. (1,00 видеокадр)
Время предзагрузки промежутка : 500 мс.
pic pic pic
Для увеличения картинки щелкните мышкой по превью

Этот торрент недоступен для скачивания без регистрации, однако доступен по публичной magnet-ссылке (источники с публичных трекеров). Перед использованием ссылки прочтите, пожалуйста Пользовательское соглашение, а также как можно дольше оставайтесь на раздаче! Для того, чтобы скачать сам торрент-файл (который видит больше источников), а также для того, чтобы поблагодарить релизера, вам необходимо зарегистрироваться. Если регистрироваться лень - вы можете также попробовать скачать релиз по нашим партнерским ссылкам ниже.

[underverse.su].t27679.torrent
Трекер: Зарегистрирован   [ 21.05.2013 07:46 ]  

Статус: проверено (by матроскин at 21.05.2013 07:59)
Поблагодарили: 8 человек
Тип торрента: публичный - доступные источники с открытых трекеров: 
Размер: 1,46 GB (занимает 1/3 DVDR, для записи нужно 1 болванка DVDR/RW)
 
 
Похожие темы
Форум Тема Автор Торрент Отв. Посл. сооб.
Зарубежное кино [DVDRip, Low-Res HDRip, и т.д.] Таймлесс. Рубиновая книга / Rubinrot (Феликс Фуксштайнер) [2013 г., фантастика, фэнтези, приключения, DVDRip] Dub + Original 90ytr90
3 | 0

0 | 1831

62

19.05.2013 19:37

Зарубежное кино [DVDRip, Low-Res HDRip, и т.д.] Таймлесс. Рубиновая книга / Rubinrot (Феликс Фуксштайнер) [2013 г., фантастика, фэнтези, приключения, DVDRip] Dub 90ytr90
1 | 0

2 | 1348

57

20.05.2013 13:49

Зарубежное кино [HDDVDRip / BDRip / WEB-DL / HDTV 1080/720р] Таймлесс. Рубиновая книга / Rubinrot (Феликс Фуксштайнер) [2013 г., фантастика, фэнтези, приключения, BDRip 720p] Dub + Original Чертёнок
1 | 0

0 | 590

21

23.05.2013 12:31

Видео для смартфонов Таймлесс. Рубиновая книга / Rubinrot [2013 г., Фантастика, фэнтези, приключения, HDRip] Dub | КПК | Лицензия Чертёнок
0 | 0

0 | 827

16

10.06.2013 09:36

BlackPanther Пол:Муж

05-Июн-2013 20:38

Спасибо!

aleksaleks 

30-Июл-2013 18:58

Смотреть можно, оригинальный сюжет.

Яндекс.Метрика powered by Sphinx


В Н И М А Н И Е
Сайт не распространяет и не хранит электронные версии произведений, а лишь бесплатно и без коммерческой выгоды (не требуя взамен платы,
SMS и т.д.) предоставляет доступ к создаваемому пользователями каталогу ссылок на торрент-файлы, которые содержат только списки хеш-сумм.
Убедительная просьба с жалобами обращаться напрямую к пользователю, разместившему торрент файл.

Вверх