Loading...
Error

Громкое дело. Афганская западня. [2006 г., документальный, военный , TVRip]

Статистика раздачи
Размер:  373 MB   |    Зарегистрирован:  3 года 6 месяцев   |    Скачан:  13 раз
Сидов:  2  |  0 KB/s  ]   Личеров:  0  |  0 KB/s  ]

* - сиды/пиры с внешних источников

   
 
Автор Сообщение

матроскин Пол:Муж

18-Май-2013 06:47

Громкое дело. Афганская западня.


Год выпуска: 2006
Жанр: документальный, военный
Страна: Россия
Режиссер: Вадим Артёменко
Выпущено: Телеканал РЕН ТВ
Сюжет фильма:
3 августа 1995 года талибский МиГ вынудил к посадке грузовой Ил-76, перевозивший стрелковое оружие и амуницию, закупленные для противников «Талибана» из Северного альянса. Все попытки России, Татарстана, ООН и США освободить экипаж оказались тщетными. Талибы отказались даже от нескольких миллионов долларов выкупа. Через год и 13 дней семеро российских летчиков из татарской компании «Аэростан» совершили дерзкий побег из Кандагара. Обстоятельства побега до сих пор представляются весьма загадочными. Летчикам удалось поднять в воздух собственный самолет, несмотря на бдительную охрану аэропорта.
Качество видео: TVRip

Продолжительность: 00:42:58
Формат: avi
Видео: XviD, 596x348, 1054 kbps
Аудио: русский, оригинал, MP3 2.0, 148 kbps

Код:

General
Complete name                    : C:\Users\Security\Desktop\Громкое дело - Афганская западня.avi
Format                           : AVI
Format/Info                      : Audio Video Interleave
File size                        : 373 MiB
Duration                         : 42mn 58s
Overall bit rate                 : 1 214 Kbps
Movie name                       : Громкое дело - Афганская западня
Subject                          : Громкое дело - Афганская западня
Writing application              : Nandub v2.01 The advanced compression technology is developed by Neiromaster
Writing library                  : Nandub 2.01 modified by Neiromaster
Copyright                        : Vaka ( ftp://80.237.24.150 )

Video
ID                               : 0
Format                           : MPEG-4 Visual
Format profile                   : Streaming Video@L1
Format settings, BVOP            : Yes
Format settings, QPel            : No
Format settings, GMC             : No warppoints
Format settings, Matrix          : Default (H.263)
Codec ID                         : XVID
Codec ID/Hint                    : XviD
Duration                         : 42mn 58s
Bit rate                         : 1 054 Kbps
Width                            : 596 pixels
Height                           : 348 pixels
Display aspect ratio             : 16/9
Frame rate                       : 25.000 fps
Resolution                       : 24 bits
Colorimetry                      : 4:2:0
Scan type                        : Progressive
Bits/(Pixel*Frame)               : 0.203
Stream size                      : 324 MiB (87%)
Writing library                  : XviD 1.1.2 (UTC 2006-11-01)

Audio
ID                               : 1
Format                           : MPEG Audio
Format version                   : Version 1
Format profile                   : Layer 3
Codec ID                         : 55
Codec ID/Hint                    : MP3
Duration                         : 42mn 58s
Bit rate mode                    : Variable
Bit rate                         : 148 Kbps
Minimum bit rate                 : 80.0 Kbps
Channel(s)                       : 2 channels
Sampling rate                    : 44.1 KHz
Resolution                       : 16 bits
Stream size                      : 45.3 MiB (12%)
Alignment                        : Aligned on interleaves
Interleave, duration             : 26 ms (0.65 video frame)
Interleave, preload duration     : 56 ms
Writing library                  : LAME3.90
Encoding settings                : -m f -V 0 -q 2 -lowpass 20.7 --vbr-old -b 80

picpicpicpicpicpic
Для увеличения картинки щелкните мышкой по превью

Этот торрент недоступен для скачивания без регистрации, однако доступен по публичной magnet-ссылке (источники с публичных трекеров). Перед использованием ссылки прочтите, пожалуйста Пользовательское соглашение, а также как можно дольше оставайтесь на раздаче! Для того, чтобы скачать сам торрент-файл (который видит больше источников), а также для того, чтобы поблагодарить релизера, вам необходимо зарегистрироваться. Если регистрироваться лень - вы можете также попробовать скачать релиз по нашим партнерским ссылкам ниже.

[underverse.su].t27601.torrent
Трекер: Зарегистрирован   [ 18.05.2013 06:47 ]  

Статус: проверено (by Печаль'ka at 18.05.2013 10:01)
Поблагодарили: 3 человека
Тип торрента: публичный - доступные источники с открытых трекеров: 
Размер: 373 MB (занимает 0,08 DVDR, для записи нужно 1 болванка DVDR/RW)
 
 
Похожие темы
Форум Тема Автор Торрент Отв. Посл. сооб.
Исторические фильмы Громкое дело: Жаркая осень 93-го [2010, документальный, TVRip] матроскин
1 | 0

1 | 697

9

03.05.2013 07:59

Другие фильмы Громкое дело. "Япончик. Плановый отстрел" (Евгений Пешков) [2009 г., документальный, расследование, криминал, TVRip] ARI71
2 | 0

0 | 571

4

30.07.2016 07:37



Последний раз редактировалось: матроскин (18.05.2013 06:53), всего редактировалось 1 раз

матроскин Пол:Муж

18-Май-2013 06:49

Качайте и смотрите интересное документальное кино


Последний раз редактировалось: матроскин (10.05.2016 00:33), всего редактировалось 1 раз

альфа Пол:Муж

20-Май-2013 12:13

Болшое Вам спасибо Матроскин за классные релизы!

Яндекс.Метрика powered by Sphinx


В Н И М А Н И Е
Сайт не распространяет и не хранит электронные версии произведений, а лишь бесплатно и без коммерческой выгоды (не требуя взамен платы,
SMS и т.д.) предоставляет доступ к создаваемому пользователями каталогу ссылок на торрент-файлы, которые содержат только списки хеш-сумм.
Убедительная просьба с жалобами обращаться напрямую к пользователю, разместившему торрент файл.

Вверх