Loading...
Error

Песню дружбы запевает молодежь. [1977 г., документальный, хроника, музыка, патриотический , TVRip]

Статистика раздачи
Размер:  270 MB   |    Зарегистрирован:  3 года 6 месяцев   |    Скачан:  6 раз

Полного источника не было: 2 года 9 месяцев

Сидов:  0  |  0 KB/s  ]   Личеров:  0  |  0 KB/s  ]

* - сиды/пиры с внешних источников

   
 
Автор Сообщение

матроскин Пол:Муж

18-Май-2013 06:31

Песню дружбы запевает молодежь.


Год выпуска: 1977
Жанр: документальный, хроника, музыка, патриотический
Страна: СССР
Выпущено: Ленинградская студия документальных фильмов
Сюжет фильма:
Фильм-концерт с участием Советских артистов эстрады Льва Лещенко, Юрия Гуляева, Эдуарда Хиля, Татьяны Калинченко и других. Основа счастливой жизни в СССР- это мир во всем мире. Поэтому очень символично авторы этого фильма назвали этот концерт "Песню дружбы запевает молодежь". Показаны значимые события тех лет и песни, отражающие мечты всего советского народа , в том числе и молодежи. Посмотрите этот фильм, может кто то вспомнит свою молодость и какое счастливое время было.
Качество видео: TVRip

Продолжительность: 00:24:26
Формат: avi
Видео: XviD, 640x480, 1409 kbps
Аудио: русский, оригинал, MP3 2.0, 128 kbps

Код:

General
Complete name                    : C:\Users\Security\Desktop\Фильм-концерт.Песню дружбы запевает молодежь.1977.avi
Format                           : AVI
Format/Info                      : Audio Video Interleave
File size                        : 270 MiB
Duration                         : 24mn 26s
Overall bit rate                 : 1 548 Kbps
Writing application              : VirtualDubMod 1.5.10.3 | www.virtualdub-fr.org || (build 2550/release)
Writing library                  : VirtualDubMod build 2550/release

Video
ID                               : 0
Format                           : MPEG-4 Visual
Format profile                   : Streaming Video@L1
Format settings, BVOP            : Yes
Format settings, QPel            : No
Format settings, GMC             : No warppoints
Format settings, Matrix          : Default (MPEG)
Codec ID                         : XVID
Codec ID/Hint                    : XviD
Duration                         : 24mn 26s
Bit rate                         : 1 410 Kbps
Width                            : 640 pixels
Height                           : 480 pixels
Display aspect ratio             : 4/3
Frame rate                       : 25.000 fps
Resolution                       : 24 bits
Colorimetry                      : 4:2:0
Scan type                        : Progressive
Bits/(Pixel*Frame)               : 0.184
Stream size                      : 246 MiB (91%)
Writing library                  : XviD 1.2.1 (UTC 2008-12-04)

Audio
ID                               : 1
Format                           : MPEG Audio
Format version                   : Version 1
Format profile                   : Layer 3
Codec ID                         : 55
Codec ID/Hint                    : MP3
Duration                         : 24mn 26s
Bit rate mode                    : Constant
Bit rate                         : 128 Kbps
Channel(s)                       : 2 channels
Sampling rate                    : 48.0 KHz
Resolution                       : 16 bits
Stream size                      : 22.4 MiB (8%)
Alignment                        : Aligned on interleaves
Interleave, duration             : 40 ms (1.00 video frame)
Interleave, preload duration     : 504 ms
Writing library                  : LAME3.99r
Encoding settings                : -m s -V 4 -q 2 -lowpass 17 -b 128

picpicpicpicpicpic
Для увеличения картинки щелкните мышкой по превью

Этот торрент недоступен для скачивания без регистрации, однако доступен по публичной magnet-ссылке (источники с публичных трекеров). Перед использованием ссылки прочтите, пожалуйста Пользовательское соглашение, а также как можно дольше оставайтесь на раздаче! Для того, чтобы скачать сам торрент-файл (который видит больше источников), а также для того, чтобы поблагодарить релизера, вам необходимо зарегистрироваться. Если регистрироваться лень - вы можете также попробовать скачать релиз по нашим партнерским ссылкам ниже.

[underverse.su].t27600.torrent
Трекер: Зарегистрирован   [ 18.05.2013 06:31 ]  

Статус: проверено (by Печаль'ka at 18.05.2013 10:00)
Поблагодарили: 1 человек
Тип торрента: публичный - доступные источники с открытых трекеров: 
Размер: 270 MB (занимает 0,06 DVDR, для записи нужно 1 болванка DVDR/RW)
 
 

матроскин Пол:Муж

18-Май-2013 06:33





альфа Пол:Муж

18-Май-2013 07:50

Уважаемый Матроскин! спсибо Вам за интересные фильмы.

Яндекс.Метрика powered by Sphinx


В Н И М А Н И Е
Сайт не распространяет и не хранит электронные версии произведений, а лишь бесплатно и без коммерческой выгоды (не требуя взамен платы,
SMS и т.д.) предоставляет доступ к создаваемому пользователями каталогу ссылок на торрент-файлы, которые содержат только списки хеш-сумм.
Убедительная просьба с жалобами обращаться напрямую к пользователю, разместившему торрент файл.

Вверх