Loading...
Error

Заброшенный замок. Воспитание нацистской элиты. [2013 г., документальный, военный, хроника , TVRip]

Статистика раздачи
Размер:  506 MB   |    Зарегистрирован:  3 года 6 месяцев   |    Скачан:  24 раза
Сидов:  1  |  0 KB/s  ]   Личеров:  0  |  0 KB/s  ]

* - сиды/пиры с внешних источников

   
 
Автор Сообщение

матроскин Пол:Муж

18-Май-2013 06:03

Заброшенный замок. Воспитание нацистской элиты.


Год выпуска: 2013
Жанр: документальный, военный, хроника
Страна: Россия
Режиссер: Александр Седельников
Сюжет фильма:
В немецком замке Фогельзанг когда-то находилась высшая партийная школа Третьего рейха. Нацистам остро не хватало хорошо подготовленных кадров для назначения на руководящие должности. Как готовили будущих партийных боссов? Смотрите в этом фильме.
Качество видео: TVRip

Продолжительность: 00:39:10
Формат: avi
Видео: XviD, 704x512, 1667 kbps
Аудио: русский, оригинал, MP3 2.0, 128 kbps

Код:

General
Complete name                    : C:\Users\Security\Desktop\Заброшенный замок.avi
Format                           : AVI
Format/Info                      : Audio Video Interleave
File size                        : 506 MiB
Duration                         : 39mn 10s
Overall bit rate                 : 1 806 Kbps
Writing application              : VirtualDubMod 1.5.10.2 (build 2540/release)
Writing library                  : VirtualDubMod build 2540/release

Video
ID                               : 0
Format                           : MPEG-4 Visual
Format profile                   : Streaming Video@L1
Format settings, BVOP            : Yes
Format settings, QPel            : No
Format settings, GMC             : No warppoints
Format settings, Matrix          : Default (MPEG)
Muxing mode                      : Packed bitstream
Codec ID                         : XVID
Codec ID/Hint                    : XviD
Duration                         : 39mn 10s
Bit rate                         : 1 668 Kbps
Width                            : 704 pixels
Height                           : 512 pixels
Display aspect ratio             : 1.375
Frame rate                       : 25.000 fps
Resolution                       : 24 bits
Colorimetry                      : 4:2:0
Scan type                        : Progressive
Bits/(Pixel*Frame)               : 0.185
Stream size                      : 467 MiB (92%)
Writing library                  : XviD 64

Audio
ID                               : 1
Format                           : MPEG Audio
Format version                   : Version 1
Format profile                   : Layer 3
Codec ID                         : 55
Codec ID/Hint                    : MP3
Duration                         : 39mn 10s
Bit rate mode                    : Constant
Bit rate                         : 128 Kbps
Channel(s)                       : 2 channels
Sampling rate                    : 48.0 KHz
Resolution                       : 16 bits
Stream size                      : 35.9 MiB (7%)
Alignment                        : Aligned on interleaves
Interleave, duration             : 40 ms (1.00 video frame)
Interleave, preload duration     : 504 ms

picpicpicpicpicpic
Для увеличения картинки щелкните мышкой по превью

Этот торрент недоступен для скачивания без регистрации, однако доступен по публичной magnet-ссылке (источники с публичных трекеров). Перед использованием ссылки прочтите, пожалуйста Пользовательское соглашение, а также как можно дольше оставайтесь на раздаче! Для того, чтобы скачать сам торрент-файл (который видит больше источников), а также для того, чтобы поблагодарить релизера, вам необходимо зарегистрироваться. Если регистрироваться лень - вы можете также попробовать скачать релиз по нашим партнерским ссылкам ниже.

[underverse.su].t27598.torrent
Трекер: Зарегистрирован   [ 18.05.2013 06:03 ]  

Статус: проверено (by Печаль'ka at 18.05.2013 10:00)
Поблагодарили: 3 человека
Тип торрента: публичный - доступные источники с открытых трекеров: 
Размер: 506 MB (занимает 0,11 DVDR, для записи нужно 1 болванка DVDR/RW)
 
 
Похожие темы
Форум Тема Автор Торрент Отв. Посл. сооб.
Зарубежное кино [DVDRip, Low-Res HDRip, и т.д.] Заброшенные / The Abandoned / The Confines (Итан Роквей) [2015 г., ужасы, триллер, детектив, WEB-DLRip] VO + Original makkol
1 | 0

0 | 388

18

26.01.2016 13:23

Зарубежное кино [DVDRip, Low-Res HDRip, и т.д.] Заброшенный / Forsaken (Джон Кассар / Jon Cassar) [2015 г., драма, вестерн, WEB-DLRip] DVO (datynet & Galina Vasyukova) + Original (Eng) 90ytr90
32 | 0

0 | 313

12

16.03.2016 15:24

Зарубежное кино [DVDRip, Low-Res HDRip, и т.д.] Заброшенный / Forsaken (Джон Кассар) [2015 г., драма, вестерн, WEB-DLRip] MVO + Original + Subs makkol
63 | 1

0 | 610

21

23.03.2016 14:57

T Зарубежное кино [DVDRip, Low-Res HDRip, и т.д.] Заброшенный / Forsaken (Джон Кассар) [2015 г., драма, вестерн, HDRip] Dub (Line) makkol
0 | 0

0 | 232

5

18.07.2016 10:52

Зарубежное кино [DVDRip, Low-Res HDRip, и т.д.] Заброшенный / Forsaken (Джон Кассар / Jon Cassar) [2015 г., драма, вестерн, HDRip] MVO (FocusStudio) 90ytr90
28 | 0

0 | 286

0

05.09.2016 12:49

Зарубежное кино [DVDRip, Low-Res HDRip, и т.д.] Заброшенный / Forsaken (Джон Кассар / Jon Cassar) [2015 г., драма, вестерн, BDRip-AVC] MVO (FocusStudio) + Sub (Rus) 90ytr90
28 | 0

0 | 328

2

05.09.2016 12:56

Зарубежное кино [DVDRip, Low-Res HDRip, и т.д.] Заброшенный / Forsaken (Джон Кассар / Jon Cassar) [2015 г., драма, вестерн, BDRip-AVC] MVO (FocusStudio) + Original (Eng) + Sub (Rus, Eng) 90ytr90
12 | 0

0 | 235

7

05.09.2016 13:03

Зарубежное кино [HDDVDRip / BDRip / WEB-DL / HDTV 1080/720р] Заброшенный дом / The Abandoned (Начо Серда) [2006 г., Ужасы, Триллер, BDRip 720p] Dub (Rus) + Subs (Rus, Eng) Ведьмочка
2 | 0

0 | 884

8

16.07.2014 18:50

Зарубежное кино [HDDVDRip / BDRip / WEB-DL / HDTV 1080/720р] Заброшенные / The Abandoned / The Confines (Итан Роквей) [2015 г., ужасы, триллер, детектив, WEB-DL 720p] VO + Original makkol
2 | 0

0 | 401

7

26.01.2016 13:31

Зарубежное кино [HDDVDRip / BDRip / WEB-DL / HDTV 1080/720р] Заброшенный / Forsaken (Джон Кассар / Jon Cassar) [2015 г., драма, вестерн, WEB-DL 1080p] DVO (datynet & Galina Vasyukova) + Original (Eng) + Sub (Rus) 90ytr90
32 | 0

0 | 342

10

16.03.2016 17:31

матроскин Пол:Муж

18-Май-2013 06:05

Качайте и смотрите интересное документальное кино


Последний раз редактировалось: матроскин (14.06.2013 10:57), всего редактировалось 1 раз

альфа Пол:Муж

20-Май-2013 12:18

Уважаемый Матроскин! Вы просто мастер находить интересные фильмы.

Hranitel Пол:Муж

09-Июл-2013 10:44

Во все времена Государство воспитывало свою элиту. Тех людей, которые защищали и поддерживали основы этого Государства. Основа нацизма-зло. И элита нацизма была силой зла. Посмотрите сейчас на наше "госыдарство". Где элита? А те кто правит нашим тонущим кораблём. Разве это элита? Никого они не воспитывают, никакой основы под нами нет. Или мы или они, другого пути у нас нет. Автору-большой респект! :good:

Morfonios Пол:Муж

13-Янв-2014 10:40

Раздайте, плиз!

Яндекс.Метрика powered by Sphinx


В Н И М А Н И Е
Сайт не распространяет и не хранит электронные версии произведений, а лишь бесплатно и без коммерческой выгоды (не требуя взамен платы,
SMS и т.д.) предоставляет доступ к создаваемому пользователями каталогу ссылок на торрент-файлы, которые содержат только списки хеш-сумм.
Убедительная просьба с жалобами обращаться напрямую к пользователю, разместившему торрент файл.

Вверх