Loading...
Error

«Последний бой» / Серии: 1-3 [3] ( Иван Шурховецкий) [2013 г., военный, драма, SatRip]

Статистика раздачи
Размер:  1,72 GB   |    Зарегистрирован:  3 года 6 месяцев   |    Скачан:  38 раз

Полного источника не было: 28 дней

Сидов:  0  |  0 KB/s  ]   Личеров:  0  |  0 KB/s  ]

* - сиды/пиры с внешних источников

   
 
Автор Сообщение

nemos Пол:Муж

17-Май-2013 15:20


Год выпуска: 2013
Жанр: военный, драма
Страна: Россия
Режиссер: Иван Шурховецкий
В ролях: Александр Марушев, Степан Бекетов, Яков Шамшин, Дмитрий Сергин, Евгений Филимонов, Ирина Веришко, Тадас ШимилёвЭдуард Сергиеня,
Спустя четыре года войны, они всего в двух шагах от Берлина. Им остается самый тяжелый, самый смертельный — последний бой.

Боец Ведемеев по прозвищу Ведьма едва вышел из госпиталя после тяжелого ранения. Он не бьется за партию, не бьется за Сталина, не сражается за коммунизм. Он бьется за себя, свою семью и своих однополчан. Ведьма присоединяется к своим накануне форсирования Одера, за которой уже Германия… Сержант Жилин, заряжающий танка Т-34, потерял весь свой экипаж в бою под Берлином. Ему дают новое командование — вчерашнего выпускника учебки, лейтенанта Амбросимова, который до этого на передовой ни разу не был. Жилин догадывается, что из ближайшего сражения, под руководством юнца, он может уже не вернуться…

Рядовой Чохов — пехотинец. Таких, как он, именуют пушечным мясом. Поднялся, крикнул «В атаку!» — и похоронка. Но сегодня у Чохова особая задача. Командование приказало провести разведку боем. Это значит — подставить солдат под пули, чтобы отметить, где у немцев огневые точки. Вернуться с такого задания живым — чудо. А до Берлина осталось совсем чуть-чуть…

Рядовой Иван Козлов — настоящий герой. Парню чуть больше 20, но он прошел всю войну, с 1941-го года, соврав командующим про свой возраст. На груди — медаль «За Отвагу» и орден Красной Звезды. Командование поручает Козлову водрузить на купол Рейхстага знамя победы. Это большая честь, но есть одна беда — бесстрашный боец Козлов до смерти боится высоты…

Четыре истории о четырех обычных солдатах, которым довелось дойти до Германии и принять участие в боях за Берлин. Киносериал канала СТС расскажет историю о людях, которые шли на самый последний бой за Рейхстаг, — и принесли своей стране победу! Некоторые — ценой собственной жизни.


Качество видео: SatRip

Продолжительность: 00:45:00серия
Формат: AVI
Видео: XviD, 720x400, 1600 kbps
Аудио: русский, MP3 2.0, 192 kbps

Код:

F:\С underverse-3 Фильмы\Poslednii.boi.2013.XviD.SATRip.Files-x\Poslednii.boi.(03.seriya).2013.XviD.SATRip.Files-x.avi
   General
      Complete name : F:\С underverse-3 Фильмы\Poslednii.boi.2013.XviD.SATRip.Files-x\Poslednii.boi.(03.seriya).2013.XviD.SATRip.Files-x.avi
      Format : AVI
      Format/Info : Audio Video Interleave
      File size : 599 MiB
      Duration : 46mn 31s
      Overall bit rate : 1 802 Kbps
      Writing application : VirtualDubModRus 1.5.10.2 (build 2540/release)
      Writing library : VirtualDubMod build 2540/release
   Video #0
      ID : 0
      Format : MPEG-4 Visual
      Format profile : Advanced Simple@L5
      Format settings, BVOP : 1
      Format settings, QPel : No
      Format settings, GMC : No warppoints
      Format settings, Matrix : Default (H.263)
      Codec ID : XVID
      Codec ID/Hint : XviD
      Duration : 46mn 31s
      Bit rate : 1 600 Kbps
      Width : 720 pixels
      Height : 400 pixels
      Display aspect ratio : 16:9
      Frame rate : 25.000 fps
      Color space : YUV
      Chroma subsampling : 4:2:0
      Bit depth : 8 bits
      Scan type : Progressive
      Compression mode : Lossy
      Bits/(Pixel*Frame) : 0.222
      Stream size : 532 MiB (89%)
      Writing library : XviD 1.2.1 (UTC 2008-12-04)
   Audio #1
      ID : 1
      Format : MPEG Audio
      Format version : Version 1
      Format profile : Layer 3
      Codec ID : 55
      Codec ID/Hint : MP3
      Duration : 46mn 31s
      Bit rate mode : Constant
      Bit rate : 192 Kbps
      Channel(s) : 2 channels
      Sampling rate : 48.0 KHz
      Compression mode : Lossy
      Stream size : 63.9 MiB (11%)
      Alignment : Aligned on interleaves
      Interleave, duration : 40 ms (1.00 video frame)
      Interleave, preload duration : 504 ms
      Writing library : LAME3.98r
      Encoding settings : -m s -V 4 -q 2 -lowpass 18.6 -b 192
Семпл: http://multi-up.com/866485

Релиз группы:

picpicpicpicpicpicpicpicpicpicpicpicpicpicpicpicpicpicpicpic
Для увеличения картинки щелкните мышкой по превью
Фильм который был выложен и зарегистрирован более двух месяцев назад буду раздавать с 23.00ч до 06.00ч утра ( вина в этом не моя, а пользователей которые не поддерживают раздачу)

Этот торрент недоступен для скачивания без регистрации, однако доступен по публичной magnet-ссылке (источники с публичных трекеров). Перед использованием ссылки прочтите, пожалуйста Пользовательское соглашение, а также как можно дольше оставайтесь на раздаче! Для того, чтобы скачать сам торрент-файл (который видит больше источников), а также для того, чтобы поблагодарить релизера, вам необходимо зарегистрироваться. Если регистрироваться лень - вы можете также попробовать скачать релиз по нашим партнерским ссылкам ниже.

[underverse.su].t27586.torrent
Трекер: Зарегистрирован   [ 17.05.2013 15:21 ]  

Статус: проверено (by Чертёнок at 17.05.2013 15:39)
Поблагодарили: 5 человек
Тип торрента: публичный - доступные источники с открытых трекеров: 
Размер: 1,72 GB (занимает 0,39 DVDR, для записи нужно 1 болванка DVDR/RW)
 
 

Яндекс.Метрика powered by Sphinx


В Н И М А Н И Е
Сайт не распространяет и не хранит электронные версии произведений, а лишь бесплатно и без коммерческой выгоды (не требуя взамен платы,
SMS и т.д.) предоставляет доступ к создаваемому пользователями каталогу ссылок на торрент-файлы, которые содержат только списки хеш-сумм.
Убедительная просьба с жалобами обращаться напрямую к пользователю, разместившему торрент файл.

Вверх