Loading...
Error

Ку! Кин-дза-дза (Георгий Данелия, Татьяна Ильина) [2013 г., мультфильм, фантастика, комедия, BDRip] HQ Underverse

Статистика раздачи
Размер:  1,45 GB   |    Зарегистрирован:  3 года 6 месяцев   |    Скачан:  203 раза
Сидов:  1  |  0 KB/s  ]   Личеров:  0  |  0 KB/s  ]

* - сиды/пиры с внешних источников

   
 
Автор Сообщение

Паукан Пол:Муж

17-Май-2013 12:58

Ку! Кин-дза-дза


Год выпуска: 2013
Жанр: мультфильм, фантастика, комедия
Страна: Россия
Режиссер: Георгий Данелия, Татьяна Ильина
В ролях: Николай Губенко, Иван Цехмистренко, Андрей Леонов, Алексей Колган, Александр Адабашьян, Георгий Данелия, Игорь Кваша, Вахтанг Кикабидзе, Галина Данелия-Юркова, Полина Кутепова
Сюжет фильма:
Начинающий диджей Толик и всемирно известный виолончелист Владимир Чижов встречают на шумной московской улице босого человека. Нажав на кнопку странной машинки, герои перемещаются на пустынную планету Плюк. Анимационный ремейк любимого всеми фильма «Кин-дза-дза!» не менее увлекательно и смешно, чем оригинал, рассказывает о приключениях Толика и дяди Вовы. В этом мире песка жители делятся на две категории — пацаков и чатлан, простая спичка обладает невероятной ценностью, а людей встречают и провожают по цвету штанов.

  • Мировая премьера: 11 апреля 2013
  • Российская премьера: 11 апреля 2013, «Наше Кино» 3D


Качество видео: BDRip

Продолжительность: 01:36:27
Формат: avi
Видео: XviD, 720x400, 1759 kbps
Аудио: русский, оригинал, AC3 5.1, 384 kbps

Код:

General
Complete name                    : G:\Ку! Кин-дза-дза\Ku.Kin.Dza.Dza.2013.BDRip.XviD.AC3.Rus.O.HQ.Underverse.avi
Format                           : AVI
Format/Info                      : Audio Video Interleave
File size                        : 1.45 GiB
Duration                         : 1h 36mn
Overall bit rate                 : 2 153 Kbps
Writing application              : VirtualDubMod 1.5.10.2 (build 2540/release)
Writing library                  : VirtualDubMod build 2540/release

Video
ID                               : 0
Format                           : MPEG-4 Visual
Format profile                   : Streaming Video@L1
Format settings, BVOP            : Yes
Format settings, QPel            : No
Format settings, GMC             : No warppoints
Format settings, Matrix          : Custom
Muxing mode                      : Packed bitstream
Codec ID                         : XVID
Codec ID/Hint                    : XviD
Duration                         : 1h 36mn
Bit rate                         : 1 760 Kbps
Width                            : 720 pixels
Height                           : 400 pixels
Display aspect ratio             : 16/9
Frame rate                       : 23.976 fps
Resolution                       : 24 bits
Colorimetry                      : 4:2:0
Scan type                        : Progressive
Bits/(Pixel*Frame)               : 0.255
Stream size                      : 1.19 GiB (82%)
Writing library                  : XviD 64

Audio
ID                               : 1
Format                           : AC-3
Format/Info                      : Audio Coding 3
Codec ID                         : 2000
Duration                         : 1h 36mn
Bit rate mode                    : Constant
Bit rate                         : 384 Kbps
Channel(s)                       : 6 channels
Channel positions                : Front: L C R, Surround: L R, LFE
Sampling rate                    : 48.0 KHz
Stream size                      : 265 MiB (18%)
Alignment                        : Split accross interleaves
Interleave, duration             : 42 ms (1.00 video frame)
Interleave, preload duration     : 500 ms

Релиз группы:

picpicpic
Для увеличения картинки щелкните мышкой по превью

Этот торрент недоступен для скачивания без регистрации, однако доступен по публичной magnet-ссылке (источники с публичных трекеров). Перед использованием ссылки прочтите, пожалуйста Пользовательское соглашение, а также как можно дольше оставайтесь на раздаче! Для того, чтобы скачать сам торрент-файл (который видит больше источников), а также для того, чтобы поблагодарить релизера, вам необходимо зарегистрироваться. Если регистрироваться лень - вы можете также попробовать скачать релиз по нашим партнерским ссылкам ниже.

[underverse.su].t27576.torrent
Трекер: Зарегистрирован   [ 17.05.2013 12:58 ]  

Статус: проверено (by Паукан at 17.05.2013 12:58)
Поблагодарили: 22 человека
Тип торрента: публичный - доступные источники с открытых трекеров: 
Размер: 1,45 GB (занимает 1/3 DVDR, для записи нужно 1 болванка DVDR/RW)
 
 
Похожие темы
Форум Тема Автор Торрент Отв. Посл. сооб.
Отечественные мультфильмы Ку! Кин-дза-дза (Георгий Данелия, Татьяна Ильина) [2013 г., мультфильм, фантастика, комедия, BDRip] Паукан
1 | 0

0 | 1478

107

14.05.2013 10:00

Отечественные мультфильмы Ку! Кин-дза-дза (Георгий Данелия, Татьяна Ильина) [2013 г., мультфильм, фантастика, комедия, BDRip-AVC] TERRAN
2 | 0

1 | 1213

53

02.12.2013 22:53

Мультфильмы [DVD / HDDVD / BD / Remux] Ку! Кин-дза-дза (Георгий Данелия, Татьяна Ильина) [2013 г., мультфильм, фантастика, комедия, ремейк, Blu-Ray Remux (1080p)] TERRAN
1 | 0

0 | 755

19

15.05.2013 12:27

Мультфильмы [DVD / HDDVD / BD / Remux] Ку! Кин-дза-дза (Георгий Данелия, Татьяна Ильина) [2013 г., мультфильм, фантастика, комедия, DVD5(сжатый)] TERRAN
0 | 0

0 | 729

11

15.05.2013 19:33

Мультфильмы [HDDVDRip / BDRip / WEB-DL / HDTV 1080/720р] Ку! Кин-дза-дза (Георгий Данелия, Татьяна Ильина) [2013 г., мультфильм, фантастика, комедия, ремейк, BDRip 720p] 90ytr90
0 | 0

1 | 1095

59

14.05.2013 15:20


Яндекс.Метрика powered by Sphinx


В Н И М А Н И Е
Сайт не распространяет и не хранит электронные версии произведений, а лишь бесплатно и без коммерческой выгоды (не требуя взамен платы,
SMS и т.д.) предоставляет доступ к создаваемому пользователями каталогу ссылок на торрент-файлы, которые содержат только списки хеш-сумм.
Убедительная просьба с жалобами обращаться напрямую к пользователю, разместившему торрент файл.

Вверх