Loading...
Error

«Следы апостолов» / Серии: 1-4 [4] ( Сергей Талыбов) [2013 г., приключения, детектив, SatRip]

Статистика раздачи
Размер:  2,25 GB   |    Зарегистрирован:  3 года 6 месяцев   |    Скачан:  15 раз

Полного источника не было: 5 месяцев 21 день

Сидов:  0  |  0 KB/s  ]   Личеров:  0  |  0 KB/s  ]

* - сиды/пиры с внешних источников

   
 
Автор Сообщение

nemos Пол:Муж

17-Май-2013 12:09


Год выпуска: 2013
Жанр: Приключения, детектив
Страна: Беларусь
Режиссер: Сергей Талыбов
В ролях: Татьяна Чердынцева, Павел Харланчук, Татьяна Мархель, Вероника Пляшкевич, Игорь Сигов, Дмитрий Мухин, Олег Гарбуз, Александр Ткаченок, Игорь Денисов, Андрей Карако
Несвижский замок в Беларуси известен в первую очередь как родовое имение князей Радзивиллов, владевших им с XVI века и до начала Второй мировой войны. Как и всякое здание с богатым историческим прошлым, замок окутан множеством тайн и мифов. Так, существует предание, что где-то в его подземельях спрятаны несметные сокровища бывших владельцев…
Наши дни. Студентка факультета права Алевтина отправляется на летнюю практику к бабушке в Несвиж. По дороге девушка знакомится со странным мужчиной Григорием, который рассказывает ей легенду о сокровищах Радзивиллов — двенадцати золотых статуях святых апостолов, якобы спрятанных в тайниках Несвижского замка…
Берлин периода Третьего рейха, Несвиж 1942 года и современность служат историческим фоном, на котором разворачиваются захватывающие события по поиску семейной реликвии рода Радзивиллов — золотых статуй Двенадцати Святых Апостолов.
Легенды и реальность, тайны и мистика, убийства и любовь переплелись в этом поиске и противоборстве советской и германской разведок, членов оккультных обществ и других героев фильма.


Качество видео: SatRip

Продолжительность: 00:45:00серия
Формат: AVI
Видео: DivX, 720x352, 1 600 kbps
Аудио: русский, MP3 2.0, 128kbps

Код:

F:\С underverse-3 Фильмы\Sledy.apostolov\Sledy.apostolov.04.avi
   General
      Complete name : F:\С underverse-3 Фильмы\Sledy.apostolov\Sledy.apostolov.04.avi
      Format : AVI
      Format/Info : Audio Video Interleave
      File size : 673 MiB
      Duration : 54mn 5s
      Overall bit rate : 1 741 Kbps
      Writing library : Boilsoft AVI tool build 1/release
   Video #0
      ID : 0
      Format : MPEG-4 Visual
      Format settings, BVOP : Yes
      Format settings, QPel : No
      Format settings, GMC : No warppoints
      Format settings, Matrix : Default (H.263)
      Codec ID : DX50
      Codec ID/Hint : DivX 5
      Duration : 54mn 5s
      Bit rate : 1 600 Kbps
      Width : 720 pixels
      Height : 352 pixels
      Display aspect ratio : 2.045
      Frame rate : 25.000 fps
      Color space : YUV
      Chroma subsampling : 4:2:0
      Bit depth : 8 bits
      Scan type : Progressive
      Compression mode : Lossy
      Bits/(Pixel*Frame) : 0.253
      Stream size : 619 MiB (92%)
      Writing library : Intel(R) MPEG-4 encoder based on Intel(R) IPP 6.1 build 137.20[6.1.137.763]
   Audio #1
      ID : 1
      Format : MPEG Audio
      Format version : Version 1
      Format profile : Layer 3
      Mode : Joint stereo
      Mode extension : MS Stereo
      Codec ID : 55
      Codec ID/Hint : MP3
      Duration : 54mn 4s
      Bit rate mode : Constant
      Bit rate : 128 Kbps
      Channel(s) : 2 channels
      Sampling rate : 48.0 KHz
      Compression mode : Lossy
      Stream size : 49.5 MiB (7%)
      Alignment : Aligned on interleaves
      Interleave, duration : 24 ms (0.60 video frame)
      Interleave, preload duration : 504 ms
      Writing library : LAME3.98.2
Семпл: http://multi-up.com/866433

picpicpicpicpicpicpicpicpicpicpicpicpicpicpic
Для увеличения картинки щелкните мышкой по превью
Сериал который был выложен и зарегистрирован более двух месяцев назад буду раздавать с 23.00ч до 06.00ч утра ( вина в этом не моя, а пользователей которые не поддерживают раздачу)

Этот торрент недоступен для скачивания без регистрации, однако доступен по публичной magnet-ссылке (источники с публичных трекеров). Перед использованием ссылки прочтите, пожалуйста Пользовательское соглашение, а также как можно дольше оставайтесь на раздаче! Для того, чтобы скачать сам торрент-файл (который видит больше источников), а также для того, чтобы поблагодарить релизера, вам необходимо зарегистрироваться. Если регистрироваться лень - вы можете также попробовать скачать релиз по нашим партнерским ссылкам ниже.

[underverse.su].t27575.torrent
Трекер: Зарегистрирован   [ 17.05.2013 12:09 ]  

Статус: проверено (by Чертёнок at 17.05.2013 12:29)
Поблагодарили: 2 человека
Тип торрента: публичный - доступные источники с открытых трекеров: 
Размер: 2,25 GB (занимает 0,51 DVDR, для записи нужно 1 болванка DVDR/RW)
 
 

Яндекс.Метрика powered by Sphinx


В Н И М А Н И Е
Сайт не распространяет и не хранит электронные версии произведений, а лишь бесплатно и без коммерческой выгоды (не требуя взамен платы,
SMS и т.д.) предоставляет доступ к создаваемому пользователями каталогу ссылок на торрент-файлы, которые содержат только списки хеш-сумм.
Убедительная просьба с жалобами обращаться напрямую к пользователю, разместившему торрент файл.

Вверх