Loading...
Error

Право голоса. Коррупция: Перегнули палку? [телепередача, эфир от 14.05.2013г, TVRip]

Статистика раздачи
Размер:  542 MB   |    Зарегистрирован:  3 года 6 месяцев   |    Скачан:  2 раза
Сидов:  1  |  0 KB/s  ]   Личеров:  0  |  0 KB/s  ]

* - сиды/пиры с внешних источников

   
 
Автор Сообщение

матроскин Пол:Муж

15-Май-2013 14:33

Право голоса. Коррупция: Перегнули палку?


Год выпуска: 2013
Жанр: телепередача
Страна: Россия
Режиссер: 3 канал ТВЦ
Ведущий: Роман Бабаян
Сюжет фильма:
«Право голоса» - это место для дискуссий и арена для политических баталий. Здесь поднимаются самые острые общественно-политические проблемы страны. В этой студии нет безразличных ораторов и безучастных зрителей. У нас каждый имеет право высказаться и быть услышанным. Мы задаем политикам и чиновникам неудобные вопросы, потому что хотим получить честные ответы. Первый вице- премьер России Игорь Шувалов заявил, что борьба с коррупцией у нас ведется с перегибами. В чем заключаются перегибы? Смотрите и делайте выводы сами.
Качество видео: TVRip

Продолжительность: 00:49:21
Формат: avi
Видео: XviD, 696x576, 1396 kbps
Аудио: русский, оригинал, MP3 2.0, 128 kbps

Код:

General
Complete name                    : C:\Users\Security\Desktop\Право голоса 14.05.avi
Format                           : AVI
Format/Info                      : Audio Video Interleave
File size                        : 542 MiB
Duration                         : 49mn 21s
Overall bit rate                 : 1 537 Kbps
Writing application              : MEncoder SVN-r33883(20110719-gcc4.5.2)
Writing library                  : MPlayer

Video
ID                               : 0
Format                           : MPEG-4 Visual
Format profile                   : Streaming Video@L1
Format settings, BVOP            : Yes
Format settings, QPel            : No
Format settings, GMC             : No warppoints
Format settings, Matrix          : Default (H.263)
Codec ID                         : XVID
Codec ID/Hint                    : XviD
Duration                         : 49mn 21s
Bit rate                         : 1 396 Kbps
Width                            : 696 pixels
Height                           : 576 pixels
Display aspect ratio             : 1.208
Frame rate                       : 25.000 fps
Resolution                       : 24 bits
Colorimetry                      : 4:2:0
Scan type                        : Progressive
Bits/(Pixel*Frame)               : 0.139
Stream size                      : 493 MiB (91%)
Writing library                  : XviD 1.2.1 (UTC 2008-12-04)

Audio
ID                               : 1
Format                           : MPEG Audio
Format version                   : Version 1
Format profile                   : Layer 3
Codec ID                         : 55
Codec ID/Hint                    : MP3
Duration                         : 49mn 21s
Bit rate mode                    : Constant
Bit rate                         : 128 Kbps
Channel(s)                       : 2 channels
Sampling rate                    : 44.1 KHz
Resolution                       : 16 bits
Video delay                      : 40ms
Stream size                      : 45.2 MiB (8%)
Alignment                        : Aligned on interleaves
Interleave, duration             : 26 ms (0.65 video frame)
Interleave, preload duration     : 522 ms

picpicpicpicpicpic
Для увеличения картинки щелкните мышкой по превью

Этот торрент недоступен для скачивания без регистрации, однако доступен по публичной magnet-ссылке (источники с публичных трекеров). Перед использованием ссылки прочтите, пожалуйста Пользовательское соглашение, а также как можно дольше оставайтесь на раздаче! Для того, чтобы скачать сам торрент-файл (который видит больше источников), а также для того, чтобы поблагодарить релизера, вам необходимо зарегистрироваться. Если регистрироваться лень - вы можете также попробовать скачать релиз по нашим партнерским ссылкам ниже.

[underverse.su].t27524.torrent
Трекер: Зарегистрирован   [ 15.05.2013 14:33 ]  

Статус: проверено (by Печаль'ka at 15.05.2013 14:36)
Поблагодарили: пока никто не поблагодарил...
Тип торрента: публичный - доступные источники с открытых трекеров: 
Размер: 542 MB (занимает 0,12 DVDR, для записи нужно 1 болванка DVDR/RW)
 
 
Похожие темы
Форум Тема Автор Торрент Отв. Посл. сооб.
Информационно-аналитические передачи Право голоса. Берегите полицию! [2012, телевизионная передача, TVRip] матроскин
1 | 0

1 | 676

0

30.04.2013 06:36

Информационно-аналитические передачи Право голоса. Будем Родину любить! [2012, телевизионная передача, TVRip] матроскин
1 | 0

1 | 651

0

30.04.2013 06:54

Информационно-аналитические передачи Право голоса. За что хватать взяточника? [2012, телевизионная передача, TVRip] матроскин
0 | 0

1 | 567

0

30.04.2013 07:01

Информационно-аналитические передачи Право голоса. Борьба с коррупцией! [2012, телевизионная передача, TVRip] матроскин
1 | 0

1 | 717

1

30.04.2013 07:06

Информационно-аналитические передачи Право голоса. В России нищих нет? [2012, телевизионная передача, TVRip] матроскин
0 | 0

1 | 774

0

30.04.2013 16:27

Информационно-аналитические передачи Право голоса. Смертная казнь для педофилов? [2012, телевизионная передача, TVRip] матроскин
1 | 0

1 | 811

0

30.04.2013 16:50

Информационно-аналитические передачи Право голоса. Милиция-полиция: что изменилось? [2012, телевизионная передача, TVRip] матроскин
1 | 0

2 | 773

0

14.05.2013 19:49

Информационно-аналитические передачи Право голоса. 90 лет без Ленина В.И. [2014 г., телепередача, TVRip] матроскин
1 | 0

2 | 683

1

05.02.2014 17:33

Информационно-аналитические передачи Право голоса. За что мы любим СССР (эфир от 06.05. 2016 г.) [2016 г., документальный, TVRip] матроскин
1 | 0

2 | 1028

0

11.05.2016 11:52

матроскин Пол:Муж

15-Май-2013 14:35







Последний раз редактировалось: матроскин (25.01.2014 08:26), всего редактировалось 2 раз(а)

альфа Пол:Муж

20-Май-2013 12:17

Уважаемый Матроскин!Очень Вам признателен за интересные передачи.

Яндекс.Метрика powered by Sphinx


В Н И М А Н И Е
Сайт не распространяет и не хранит электронные версии произведений, а лишь бесплатно и без коммерческой выгоды (не требуя взамен платы,
SMS и т.д.) предоставляет доступ к создаваемому пользователями каталогу ссылок на торрент-файлы, которые содержат только списки хеш-сумм.
Убедительная просьба с жалобами обращаться напрямую к пользователю, разместившему торрент файл.

Вверх