Loading...
Error

Невеста (Эльёр Ишмухамедов ) [2006 г., мелодрама, DVDRip]

Статистика раздачи
Размер:  745 MB   |    Зарегистрирован:  3 года 6 месяцев   |    Скачан:  2 раза

Полного источника не было: 2 года 2 месяца

Сидов:  0  |  0 KB/s  ]   Личеров:  0  |  0 KB/s  ]

* - сиды/пиры с внешних источников

   
 
Автор Сообщение

матроскин Пол:Муж

15-Май-2013 12:40

Невеста


Год выпуска: 2006
Жанр: мелодрама
Страна: Россия
Режиссер: Эльёр Ишмухамедов
В ролях: : Юлия Пересильд, Шамиль Хаматов, Тамара Акулова, Анна Шерлинг, Александр Головин, Олег Малахов, Сергей Мамаев, Константин Глушков, Татьяна Пискарёва, Жан Даниэль, Шухрат Иргашев
Сюжет фильма:
Как-то на Святки романтичная провинциальная студентка Оля решила погадать. Зажгла свечу перед зеркалом и увидела в нем суженого-ряженого – реального молодого человека по имени Саша, в которого, еще будучи школьницей, влюбилась прямо на улице с первого взгляда.
Девушка не стала игнорировать знаки судьбы и отправилась искать нареченного, нашла его дом, позвонила в дверь и… попала на похороны Саши. Оказывается, его убили в Чечне. Отчаянный юноша сам попросил, чтобы его отправили в "горячую точку" - хотел отомстить за убитого друга. Но в итоге погиб сам…


Качество видео: DVDRip

Продолжительность: 01:25:50
Формат: avi
Видео: XviD, 672x400, 1075 kbps
Аудио: русский, оригинал, MP3 2.0, 128 kbps

Код:

General
Complete name                    : C:\Users\Security\Desktop\Невеста.2006.DVDRip.avi
Format                           : AVI
Format/Info                      : Audio Video Interleave
File size                        : 745 MiB
Duration                         : 1h 25mn
Overall bit rate                 : 1 213 Kbps
Movie name                       : Невеста.2006.DVDRip.Xvid.MP3.745MB.R.G.NasheKino
Director                         : Landmesser
Writing application              : VirtualDubMod 1.5.10.3 | www.virtualdub-fr.org || (build 2550/release)
Copyright                        : R.G.NasheKino
Comment                          : *другой трекер*

Video
ID                               : 0
Format                           : MPEG-4 Visual
Format profile                   : Streaming Video@L1
Format settings, BVOP            : Yes
Format settings, QPel            : No
Format settings, GMC             : No warppoints
Format settings, Matrix          : Default (H.263)
Codec ID                         : XVID
Codec ID/Hint                    : XviD
Duration                         : 1h 25mn
Bit rate                         : 1 075 Kbps
Width                            : 672 pixels
Height                           : 400 pixels
Display aspect ratio             : 1.680
Frame rate                       : 25.000 fps
Resolution                       : 24 bits
Colorimetry                      : 4:2:0
Scan type                        : Progressive
Bits/(Pixel*Frame)               : 0.160
Stream size                      : 660 MiB (89%)
Writing library                  : XviD 73

Audio
ID                               : 1
Format                           : MPEG Audio
Format version                   : Version 1
Format profile                   : Layer 3
Codec ID                         : 55
Codec ID/Hint                    : MP3
Duration                         : 1h 25mn
Bit rate mode                    : Constant
Bit rate                         : 128 Kbps
Channel(s)                       : 2 channels
Sampling rate                    : 48.0 KHz
Resolution                       : 16 bits
Stream size                      : 78.6 MiB (11%)
Alignment                        : Aligned on interleaves
Interleave, duration             : 40 ms (1.00 video frame)
Interleave, preload duration     : 504 ms
Writing library                  : LAME3.99r
Encoding settings                : -m s -V 4 -q 2 -lowpass 17 -b 128

picpicpicpicpicpic
Для увеличения картинки щелкните мышкой по превью

Этот торрент недоступен для скачивания без регистрации, однако доступен по публичной magnet-ссылке (источники с публичных трекеров). Перед использованием ссылки прочтите, пожалуйста Пользовательское соглашение, а также как можно дольше оставайтесь на раздаче! Для того, чтобы скачать сам торрент-файл (который видит больше источников), а также для того, чтобы поблагодарить релизера, вам необходимо зарегистрироваться. Если регистрироваться лень - вы можете также попробовать скачать релиз по нашим партнерским ссылкам ниже.

[underverse.su].t27520.torrent
Трекер: Зарегистрирован   [ 15.05.2013 12:40 ]  

Статус: проверено (by Печаль'ka at 15.05.2013 12:54)
Поблагодарили: пока никто не поблагодарил...
Тип торрента: публичный - доступные источники с открытых трекеров: 
Размер: 745 MB (занимает 0,17 DVDR, для записи нужно 1 болванка DVDR/RW)
 
 

матроскин Пол:Муж

15-Май-2013 12:42






Яндекс.Метрика powered by Sphinx


В Н И М А Н И Е
Сайт не распространяет и не хранит электронные версии произведений, а лишь бесплатно и без коммерческой выгоды (не требуя взамен платы,
SMS и т.д.) предоставляет доступ к создаваемому пользователями каталогу ссылок на торрент-файлы, которые содержат только списки хеш-сумм.
Убедительная просьба с жалобами обращаться напрямую к пользователю, разместившему торрент файл.

Вверх